Welcome Guest ( Log In | Register )

> Releases Upload / Добавление релизов

Добавить релиз тут / Click here to add release
Рекомендованные обменники / Recommended file shares

> Besta - Eterno Rancor (2019), Death Metal/Grindcore (D5)
post Mar 14 2019, 14:08:08
Post #1

Serial Uploader
Group Icon
Group: V.I.P
Posts: 34,298
Releases: 32531
From: Lithuania
On Forums: 10 years 9 months
Thanks: 371140 time(s)
Lithuania


(IMG:https://metalarea.org/images/audiocovers/2019_Mar/acov_tid319028_thumb.jpg)

*Artist: Besta
*Album: Eterno Rancor
*Year: 2019
*Genre: Death Metal/Grindcore
*Country: Portugal (IMG:https://metalarea.org/forum/style_images/flags/Portugal.png)
*Format: mp3@CBR320kbps
*Size: 52MB

Tracklist:
01. Diamorte
02. Falsa Arte
03. Apóstolo do Terror
04. Sincronismo do Mal
05. Sangue Morto
06. Repúdio Alarmante
07. Um Nas Sombas
08. Sopro do Tirano
09. Ofício da Mentira
10 O Caminho da Mão Esquerda
11 Neoselvagens
12 Azul, Vermelho e Branco
13 Porco Azul
14 Saco Azul
15 Amigo Tóxico
******************************
Total playing time: 22:37




Technical info
(IMG:https://metalarea.org/images/spectrogram/2019_Mar/f2ab94d19a63d8edebb2a3dc90fd32bb.png)
Input File: 2 - Hey Poseidon.mp3
Channels : 2
Sample Rate : 44100
Precision : 16-bit
Duration : 00:05:12.91 = 13799419 samples = 23468.4 CDDA sectors
File Size : 12.7M
Bit Rate : 324k
Sample Encoding: MPEG audio (layer I, II or III)
Comments :
Title=Hey Poseidon
Artist=Ty Morn
Album=Istor
Tracknumber=2
Year=2019
Genre=Metal
Discnumber=1



Register


Go to the top of the page
  Insert nick Quick quote
+Quote Post
 
Start new topic
Replies (1 - 2)
post Mar 14 2019, 20:19:34
Post #2

Литр
*
Group: Подсевший
Posts: 65
Releases: 0
From: Башкирия
On Forums: 10 years 1 month
Thanks: 1 time(s)
Russian Federation


Обложка из предыдущего релиза!
Go to the top of the page
  Insert nick Quick quote
+Quote Post
post Mar 15 2019, 10:50:17
Post #3

hearer & reader
**************
Group: Металариец
Posts: 7,517
Releases: 96
From: Moscow
On Forums: 11 years 6 months
Thanks: 7103 time(s)
Russian Federation


Grindcore/Crust
Go to the top of the page
  Insert nick Quick quote
+Quote Post

Reply to this topicStart new topic
2 User(s) are reading this topic (2 Guests and 0 Anonymous Users)
0 Members:

 



- Lo-Fi Version Support form
Copyrights and abuse reports form
Time is now: 20th March 2019 - 01:49:14