Welcome Guest ( Log In | Register )

> Releases Upload / Добавление релизов

Добавить релиз тут / Click here to add release
Рекомендованные обменники / Recommended file shares

> Dreams In Peril - Mephobia (2019), Progressive Death Metal/Deathcore
post Mar 14 2019, 14:24:22
Post #1

Serial Uploader
Group Icon
Group: V.I.P
Posts: 34,298
Releases: 32531
From: Lithuania
On Forums: 10 years 9 months
Thanks: 371140 time(s)
Lithuania


(IMG:https://metalarea.org/images/audiocovers/2019_Mar/acov_tid319030_thumb.jpg)

*Artist: Dreams In Peril
*Album: Mephobia
*Year: 2019
*Genre: Progressive Death Metal/Deathcore
*Country: United States (IMG:https://metalarea.org/forum/style_images/flags/United%20States.png)
*Format: mp3@CBR320kbps
*Size: 62MB

Tracklist:
01. Villainry
02. Placebo
03. Seldom Solace
04. Make Your Martyr
05. Porcelain
06. Neckties and Nostalgia
07. Mephobia
08. Makeshift Motives
******************************
Total playing time: 26:56




Technical info
(IMG:https://metalarea.org/images/spectrogram/2019_Mar/56f169da5e544201fc1a0874ea098c8c.png)
Input File: 2 - Placebo.mp3
Channels : 2
Sample Rate : 44100
Precision : 16-bit
Duration : 00:02:59.52 = 7916964 samples = 13464.2 CDDA sectors
File Size : 7.36M
Bit Rate : 328k
Sample Encoding: MPEG audio (layer I, II or III)
Comments :
Title=Placebo
Artist=Dreams in Peril
Album=Mephobia
Tracknumber=2
Year=2019
Genre=Metal
Discnumber=1



Register


Go to the top of the page
  Insert nick Quick quote
+Quote Post
 
Start new topic
Replies (1 - 1)
post Mar 15 2019, 14:30:34
Post #2

Пять Литров
*****
Group: Металариец
Posts: 423
Releases: 0
On Forums: 12 years 2 months
Thanks: 54 time(s)
Russian Federation


Хочется задушить вокалиста...
Go to the top of the page
  Insert nick Quick quote
+Quote Post

Reply to this topicStart new topic
1 User(s) are reading this topic (1 Guests and 0 Anonymous Users)
0 Members:

 



- Lo-Fi Version Support form
Copyrights and abuse reports form
Time is now: 20th March 2019 - 01:47:20