Welcome Guest ( Log In | Register )

> Releases Upload / Добавление релизов

Добавить релиз тут / Click here to add release
Рекомендованные обменники / Recommended file shares

> Warhead Wrex - WW1 (2019), Death/Groove Metal
post Mar 14 2019, 14:31:06
Post #1

Serial Uploader
Group Icon
Group: V.I.P
Posts: 34,371
Releases: 32603
From: Lithuania
On Forums: 10 years 9 months
Thanks: 372132 time(s)
Lithuania


(IMG:https://metalarea.org/images/audiocovers/2019_Mar/acov_tid319031_thumb.jpg)

*Artist: Warhead Wrex
*Album: WW1
*Year: 2019
*Genre: Death/Groove Metal
*Country: United States (IMG:https://metalarea.org/forum/style_images/flags/United%20States.png)
*Format: mp3@CBR320kbps
*Size: 78MB

Tracklist:
01. Call of the Void 05:01
02. Bloodborn 02:45
03. Son of Carnage 04:12
04. Deadlights 03:58
05. Volcanic Preservation 05:16
06. Chains of Obedience 02:34
07. Nuclear Shadows 03:40
08. Cyborg Psychosis 03:45
09. Texas Chainsaw 02:34
******************************
Total playing time: 33:45




Technical info
(IMG:https://metalarea.org/images/spectrogram/2019_Mar/c19eb7b7eab219a0ce166abecffe7ecb.png)
Input File: 02. Bloodborn.mp3
Channels : 2
Sample Rate : 44100
Precision : 16-bit
Duration : 00:02:46.80 = 7356056 samples = 12510.3 CDDA sectors
File Size : 6.73M
Bit Rate : 323k
Sample Encoding: MPEG audio (layer I, II or III)
Comments :
Title=Bloodborn
Artist=Warhead Wrex
Album=WW1
Tracknumber=2
Year=2019
Discnumber=1



Register


Go to the top of the page
  Insert nick Quick quote
+Quote Post
 
Start new topic
Replies (1 - 1)
post Mar 15 2019, 10:09:25
Post #2

hearer & reader
**************
Group: Металариец
Posts: 7,544
Releases: 98
From: Moscow
On Forums: 11 years 6 months
Thanks: 7115 time(s)
Russian Federation





Thanks:
(1) KVRT,
Go to the top of the page
  Insert nick Quick quote
+Quote Post

Reply to this topicStart new topic
2 User(s) are reading this topic (2 Guests and 0 Anonymous Users)
0 Members:

 



- Lo-Fi Version Support form
Copyrights and abuse reports form
Time is now: 25th March 2019 - 06:19:59