Welcome Guest ( Log In | Register )

 
Reply to this topicStart new topic
> Infested - The World's End (2019), Groove Metal (D6)
post Mar 14 2019, 14:37:56
Post #1

Serial Uploader
Group Icon
Group: V.I.P
Posts: 35,408
Releases: 33620
From: Lithuania
On Forums: 11 years 1 week
Thanks: 385970 time(s)
Lithuania


(IMG:https://metalarea.org/images/audiocovers/2019_Mar/acov_tid319032_thumb.jpg)

*Artist: Infested
*Album: The World's End
*Year: 2019
*Genre: Groove Metal
*Country: United States (IMG:https://metalarea.org/forum/style_images/flags/United%20States.png)
*Format: mp3@CBR320kbps
*Size: 117MB

Tracklist:
01. Death Trip
02. Caos
03. God Is A Lie
04. Enslavement
05. Vomit Your Soul
06. Reversal
07. The World's End
08. Insurrection
09. Violence Against The World
10. Moral Decay
11. Not At All
12. You Miss (feat. Lucy Kat)
13. What You Waiting 4
14. Collapse
15. Wrong Direction
******************************
Total playing time: 50:53

Technical info
(IMG:https://metalarea.org/images/spectrogram/2019_Mar/f776447d900dd5c9a73f7beb010e87fb.png)
Input File: 02. Caos.mp3
Channels : 2
Sample Rate : 44100
Precision : 16-bit
Duration : 00:04:32.84 = 12032288 samples = 20463.1 CDDA sectors
File Size : 11.0M
Bit Rate : 323k
Sample Encoding: MPEG audio (layer I, II or III)
Comments :
Title=Caos
Artist=Infested
Album=The World's End
Tracknumber=2
Discnumber=1



Register


Go to the top of the page
  Insert nick Quick quote
+Quote Post

Reply to this topicStart new topic
1 User(s) are reading this topic (1 Guests and 0 Anonymous Users)
0 Members:

 



- Lo-Fi Version Support form
Copyrights and abuse reports form
Time is now: 16th June 2019 - 21:56:38