Welcome Guest ( Log In | Register )

> Releases Upload / Добавление релизов

Добавить релиз тут / Click here to add release
Рекомендованные обменники / Recommended file shares

 
Reply to this topicStart new topic
> We Are Obscurity - Chaos [ep] (2019), Deathcore
post Mar 14 2019, 14:54:21
Post #1

Serial Uploader
Group Icon
Group: V.I.P
Posts: 34,298
Releases: 32531
From: Lithuania
On Forums: 10 years 9 months
Thanks: 371141 time(s)
Lithuania


(IMG:https://metalarea.org/images/audiocovers/2019_Mar/acov_tid319033_thumb.jpg)

*Artist: We Are Obscurity
*Album: Chaos [ep]
*Year: 2019
*Genre: Deathcore
*Country: Russian Federation (IMG:https://metalarea.org/forum/style_images/flags/Russian%20Federation.png)
*Format: mp3@CBR320kbps
*Size: 58MB

Tracklist:
01. Chaos 03:39
02. The Cleansing 05:40
03. Hatred 03:35
04. Find No Solace 04:29
05. Illusion of Reality 03:27
06. Misanthropy 04:12
******************************
Total playing time: 25:02


Preview 2
(IMG:https://metalarea.org/images/youtube.png)

Technical info
(IMG:https://metalarea.org/images/spectrogram/2019_Mar/7b8124836f2d348cccfe092c8893c451.png)
Input File: 02. The Cleansing.mp3
Channels : 2
Sample Rate : 44100
Precision : 16-bit
Duration : 00:05:40.37 = 15010361 samples = 25527.8 CDDA sectors
File Size : 13.7M
Bit Rate : 322k
Sample Encoding: MPEG audio (layer I, II or III)
Comments :
Title=The Cleansing
Artist=We Are Obscurity
Album=Chaos
Tracknumber=2
Year=2019
Discnumber=1



Register


Go to the top of the page
  Insert nick Quick quote
+Quote Post

Reply to this topicStart new topic
1 User(s) are reading this topic (1 Guests and 0 Anonymous Users)
0 Members:

 



- Lo-Fi Version Support form
Copyrights and abuse reports form
Time is now: 20th March 2019 - 02:19:28