Welcome Guest ( Log In | Register )

> Releases Upload / Добавление релизов

Добавить релиз тут / Click here to add release
Рекомендованные обменники / Recommended file shares

> Asymmetric Universe - When Reality Disarticulates [ep] (2019), Instrumental/Progressive Metal/Fusion
post Mar 14 2019, 15:02:35
Post #1

Serial Uploader
Group Icon
Group: V.I.P
Posts: 34,298
Releases: 32531
From: Lithuania
On Forums: 10 years 9 months
Thanks: 371140 time(s)
Lithuania


(IMG:https://metalarea.org/images/audiocovers/2019_Mar/acov_tid319034_thumb.jpg)

*Artist: Asymmetric Universe
*Album: When Reality Disarticulates [ep]
*Year: 2019
*Genre: Instrumental/Progressive Metal/Fusion
*Country: Italy (IMG:https://metalarea.org/forum/style_images/flags/Italy.png)
*Format: mp3@CBR320kbps
*Size: 46MB

Tracklist:
01. Trees Houses Hills 02:52
02. Hermeneutic Shock 05:21
03. Off the Beaten Track 06:34
04. The Clouds Passing By 04:58
******************************
Total playing time: 19:45



Technical info
(IMG:https://metalarea.org/images/spectrogram/2019_Mar/471133f4cf37382db80e507df093e5cc.png)
Input File: 02. Hermeneutic Shock.mp3
Channels : 2
Sample Rate : 44100
Precision : 16-bit
Duration : 00:05:22.06 = 14202758 samples = 24154.4 CDDA sectors
File Size : 13.0M
Bit Rate : 323k
Sample Encoding: MPEG audio (layer I, II or III)
Comments :
Title=Hermeneutic Shock
Artist=Asymmetric Universe
Album=When Reality Disarticulates
Tracknumber=2
Year=2019
Discnumber=1



Register


Thanks:
Go to the top of the page
  Insert nick Quick quote
+Quote Post
 
Start new topic
Replies (1 - 1)
post Mar 15 2019, 15:18:40
Post #2

Литр
*
Group: Подсевший
Posts: 72
Releases: 0
On Forums: 1 year 2 months
Thanks: 5 time(s)
Unknown


Go to the top of the page
  Insert nick Quick quote
+Quote Post

Reply to this topicStart new topic
1 User(s) are reading this topic (1 Guests and 0 Anonymous Users)
0 Members:

 



- Lo-Fi Version Support form
Copyrights and abuse reports form
Time is now: 20th March 2019 - 01:48:34