Welcome Guest ( Log In | Register )

> Releases Upload / Добавление релизов

Добавить релиз тут / Click here to add release
Рекомендованные обменники / Recommended file shares

 
Reply to this topicStart new topic
> Her Worst Nightmare - Her Worst Nightmare (2019), Death/Thrash Metal
post Mar 14 2019, 15:10:47
Post #1

Правь статус, ####!111
**************
Group: Металариец
Posts: 16,355
Releases: 11115
From: Г.Харьков
On Forums: 6 years 10 months
Thanks: 184941 time(s)
Unknown


(IMG:https://metalarea.org/images/audiocovers/2019_Mar/acov_tid319035_thumb.jpg)

*Artist: Her Worst Nightmare
*Album: Her Worst Nightmare
*Year: 2019
*Genre: Death/Thrash Metal
*Country: United States (IMG:https://metalarea.org/forum/style_images/flags/United%20States.png)
*Format: mp3@CBR320kbps
*Size: 73MB

Tracklist:
01. Found in a Pool of Blood
02. A Touch of Madness
03. Destination Death: Next Stop Ocean Floor
04. Part of the Collective
05. Nunfucker
06. Slaughtered for Her Meat
07. Full Moon Fishing
08. In a Heartbeat
09. Misread and Beheaded
10. A Gruesome Farewell
******************************
Total playing time: 34:02




Extended info
Nick Ruiz Bass
Jason Caruana Drums
Moises Sepulveda Guitars, Vocals
Carlos Bahena Vocals


Technical info
(IMG:https://metalarea.org/images/spectrogram/2019_Mar/259e8306728e26ce7b7702277dd3308f.png)
Input File: 04. Part of the Collective.mp3
Channels : 2
Sample Rate : 44100
Precision : 16-bit
Duration : 00:04:25.13 = 11692409 samples = 19885 CDDA sectors
File Size : 10.8M
Bit Rate : 325k
Sample Encoding: MPEG audio (layer I, II or III)
Comments :
Title=Part of the Collective
Artist=Her Worst Nightmare
Album=Her Worst Nightmare
Tracknumber=4
Year=2019
Discnumber=1



Register


Go to the top of the page
  Insert nick Quick quote
+Quote Post

Reply to this topicStart new topic
2 User(s) are reading this topic (2 Guests and 0 Anonymous Users)
0 Members:

 



- Lo-Fi Version Support form
Copyrights and abuse reports form
Time is now: 25th March 2019 - 06:22:31