Welcome Guest ( Log In | Register )

> Releases Upload / Добавление релизов

Добавить релиз тут / Click here to add release
Рекомендованные обменники / Recommended file shares

> Roman Rouzine - Humans (2019), Instrumental/Progressive Metal
post Mar 14 2019, 15:11:20
Post #1

Serial Uploader
Group Icon
Group: V.I.P
Posts: 34,298
Releases: 32531
From: Lithuania
On Forums: 10 years 9 months
Thanks: 371140 time(s)
Lithuania


(IMG:https://metalarea.org/images/audiocovers/2019_Mar/acov_tid319036_thumb.jpg)

*Artist: Roman Rouzine
*Album: Humans
*Year: 2019
*Genre: Instrumental/Progressive Metal
*Country: France (IMG:https://metalarea.org/forum/style_images/flags/France.png)
*Format: mp3@CBR320kbps
*Size: 100MB

Tracklist:
01. Drama 04:00
02. Aura 04:01
03. Mad Circus 04:58
04. Lacrimosa 03:23
05. Pulse 03:51
06. ATO 05:31
07. Disgrace 05:42
08. Hidden Faces 03:45
09. Reminiscence 04:10
10. Rebirth 03:49
******************************
Total playing time: 43:10


(IMG:https://metalarea.org/images/youtube.png)

Technical info
(IMG:https://metalarea.org/images/spectrogram/2019_Mar/1f7adfc83913de37980091c9402fdf67.png)
Input File: 2 - Aura.mp3
Channels : 2
Sample Rate : 44100
Precision : 16-bit
Duration : 00:04:01.18 = 10635818 samples = 18088.1 CDDA sectors
File Size : 9.76M
Bit Rate : 324k
Sample Encoding: MPEG audio (layer I, II or III)
Comments :
Title=Aura
Artist=Roman Rouzine
Album=Humans
Tracknumber=2
Year=2019
Genre=Rock
Discnumber=1



Register


Thanks:
Go to the top of the page
  Insert nick Quick quote
+Quote Post
 
Start new topic
Replies (1 - 3)
post Mar 15 2019, 10:05:29
Post #2

тебе 28, а ты все реверсами балуешься
***********
Group: Металариец
Posts: 1,584
Releases: 4
On Forums: 10 years 7 months
Thanks: 415 time(s)
Russian Federation


Посмотрел превью - всё такое вычурное и прям стараются, но аж зубы сводит от уныния, тухло (IMG:style_emoticons/default/smile2.gif)


Thanks:
(1) magikart,
Go to the top of the page
  Insert nick Quick quote
+Quote Post
post Mar 15 2019, 14:36:25
Post #3

Пять Литров
*****
Group: Металариец
Posts: 423
Releases: 0
On Forums: 12 years 2 months
Thanks: 54 time(s)
Russian Federation


Бесит когда в метал добавляют балет, цирк или театр. Это такое извращение!
Go to the top of the page
  Insert nick Quick quote
+Quote Post
post Mar 18 2019, 12:42:15
Post #4

Два Литра
**
Group: Завсегдатай
Posts: 184
Releases: 0
From: Ташкент
On Forums: 11 years 1 month
Thanks: 39 time(s)
Uzbekistan


Очень хороший альбом, всё прекрасно сбалансировано и прописано. Фьюжн-метал.
Go to the top of the page
  Insert nick Quick quote
+Quote Post

Reply to this topicStart new topic
1 User(s) are reading this topic (1 Guests and 0 Anonymous Users)
0 Members:

 



- Lo-Fi Version Support form
Copyrights and abuse reports form
Time is now: 20th March 2019 - 01:51:58