Welcome Guest ( Log In | Register )

 
Reply to this topicStart new topic
> Ex Libris - Ann - Chapter 2 - Anastasia Romanova [ep] (2019), Symphonic/Gothic Metal (D4)
post Mar 14 2019, 15:19:10
Post #1

Serial Uploader
Group Icon
Group: V.I.P
Posts: 35,127
Releases: 33345
From: Lithuania
On Forums: 10 years 11 months
Thanks: 382011 time(s)
Lithuania


(IMG:https://metalarea.org/images/audiocovers/2019_Mar/acov_tid319037_thumb.jpg)

*Artist: Ex Libris
*Album: Ann - Chapter 2 - Anastasia Romanova [ep]
*Year: 2019
*Genre: Symphonic/Gothic Metal
*Country: Netherlands (IMG:https://metalarea.org/forum/style_images/flags/Netherlands.png)
*Format: mp3@CBR320kbps
*Size: 47MB

Tracklist:
01. The Motherland 06:45
02. The Healer 05:42
03. The Exile 08:10
******************************
Total playing time: 20:37




Technical info
(IMG:https://metalarea.org/images/spectrogram/2019_Mar/b3e44ceb41976536057c0f9b61adcb52.png)
Input File: 02. The Healer.mp3
Channels : 2
Sample Rate : 44100
Precision : 16-bit
Duration : 00:05:42.83 = 15118671 samples = 25712 CDDA sectors
File Size : 13.8M
Bit Rate : 321k
Sample Encoding: MPEG audio (layer I, II or III)
Comments :
Title=The Healer
Artist=Ex Libris
Album=Ann - Chapter 2: Anastasia Romanova
Tracknumber=2
Year=2019
Discnumber=1



Register


Go to the top of the page
  Insert nick Quick quote
+Quote Post

Reply to this topicStart new topic
1 User(s) are reading this topic (1 Guests and 0 Anonymous Users)
0 Members:

 



- Lo-Fi Version Support form
Copyrights and abuse reports form
Time is now: 19th May 2019 - 10:25:23