Welcome Guest ( Log In | Register )

> Releases Upload / Добавление релизов

Добавить релиз тут / Click here to add release
Рекомендованные обменники / Recommended file shares

> Steaksauce Mustache - Superwoke (2019), Math Metal/Mathcore
post Mar 14 2019, 15:30:23
Post #1

Serial Uploader
Group Icon
Group: V.I.P
Posts: 34,371
Releases: 32603
From: Lithuania
On Forums: 10 years 9 months
Thanks: 372132 time(s)
Lithuania


(IMG:https://metalarea.org/images/audiocovers/2019_Mar/acov_tid319038_thumb.jpg)

*Artist: Steaksauce Mustache
*Album: Superwoke
*Year: 2019
*Genre: Math Metal/Mathcore
*Country: United States (IMG:https://metalarea.org/forum/style_images/flags/United%20States.png)
*Format: mp3@CBR320kbps
*Size: 65MB

Tracklist:
01. Barnyard Brodown 01:54
02. Denim Diaper Daddies 02:57
03. Balls Deep in Spiders 02:36
04. Pass the Fist, Pacifist 04:40
05. Space Bank 03:35
06. You Can't Piss on Hospitality 04:47
07. Dance Cops 01:55
08. Diesel Powered Baby 05:58
******************************
Total playing time: 28:22



(IMG:https://metalarea.org/images/youtube.png)

Technical info
(IMG:https://metalarea.org/images/spectrogram/2019_Mar/f4e04b9440e1984af2e24ef7c00ff9da.png)
Input File: 02. Denim Diaper Daddies.mp3
Channels : 2
Sample Rate : 44100
Precision : 16-bit
Duration : 00:02:57.12 = 7811124 samples = 13284.2 CDDA sectors
File Size : 7.15M
Bit Rate : 323k
Sample Encoding: MPEG audio (layer I, II or III)
Comments :
Title=Denim Diaper Daddies
Artist=Steaksauce Mustache
Album=SuperWoke
Tracknumber=2
Year=2019
Discnumber=1



Register


Go to the top of the page
  Insert nick Quick quote
+Quote Post
 
Start new topic
Replies (1 - 3)
post Mar 14 2019, 17:39:22
Post #2

Don't be negative.
**************
Group: Металариец
Posts: 2,812
Releases: 747
From: Earthmother
On Forums: 8 years 6 months
Thanks: 9882 time(s)
Ukraine


Во-первых - мат метала у них нет и никогда не было.
Во-вторых - группа из Орегона, США.
Go to the top of the page
  Insert nick Quick quote
+Quote Post
post Mar 15 2019, 11:30:26
Post #3

Три Литра
***
Group: Завсегдатай
Posts: 233
Releases: 3
On Forums: 11 years 11 months
Thanks: 191 time(s)
Russian Federation


Steaksauce Mustache is a chaotic rock'n'roll band from the tree infested reaches of southern Oregon.
Go to the top of the page
  Insert nick Quick quote
+Quote Post
post Mar 15 2019, 12:46:58
Post #4

Пять Литров
*****
Group: Металариец
Posts: 423
Releases: 0
On Forums: 12 years 2 months
Thanks: 54 time(s)
Russian Federation


Шизо гаунище
Go to the top of the page
  Insert nick Quick quote
+Quote Post

Reply to this topicStart new topic
2 User(s) are reading this topic (2 Guests and 0 Anonymous Users)
0 Members:

 



- Lo-Fi Version Support form
Copyrights and abuse reports form
Time is now: 25th March 2019 - 07:18:37