Welcome Guest ( Log In | Register )

> И неформату есть предел.

Рэп/хип-хоп/шансон/поп удаляются. Для них есть свои порталы.

> Danheim - Hringrás (2019), Nordic Dark Folk (D5)
post Mar 14 2019, 15:44:06
Post #1

Serial Uploader
Group Icon
Group: V.I.P
Posts: 34,298
Releases: 32531
From: Lithuania
On Forums: 10 years 9 months
Thanks: 371140 time(s)
Lithuania


(IMG:https://metalarea.org/images/audiocovers/2019_Mar/acov_tid319039_thumb.jpg)

*Artist: Danheim
*Album: Hringrás
*Year: 2019
*Genre: Nordic Dark Folk
*Country: Denmark (IMG:https://metalarea.org/forum/style_images/flags/Denmark.png)
*Format: mp3@CBR320kbps
*Size: 114MB

Tracklist:
01. Vaftrudner 04:16
02. Danheim & Gealdýr - Óðinn 05:33
03. Hringrás 05:23
04. Lifa & Dauðr 06:07
05. Danheim & Gealdýr - Ragnarök 05:16
06. Hrafnkell 03:11
07. Norðr 04:30
08. Jotunheim 03:47
09. Helgafell 03:28
10. Danelagen 03:31
11. Bjarkemål 03:49
******************************
Total playing time: 48:51



(IMG:https://metalarea.org/images/youtube.png)

Technical info
(IMG:https://metalarea.org/images/spectrogram/2019_Mar/6c6df1234b7e44e7e0a5d070182d8283.png)
Input File: 2 - Odinn.mp3
Channels : 2
Sample Rate : 44100
Precision : 16-bit
Duration : 00:05:34.07 = 14732575 samples = 25055.4 CDDA sectors
File Size : 13.5M
Bit Rate : 324k
Sample Encoding: MPEG audio (layer I, II or III)
Comments :
Title=Odinn
Artist=Danheim
Album=Hringrás
Tracknumber=2
Year=2019
Genre=Pop/International Pop
Discnumber=1



Register


Go to the top of the page
  Insert nick Quick quote
+Quote Post
 
Start new topic
Replies (1 - 4)
post Mar 14 2019, 18:17:47
Post #2

Шесть Литров
******
Group: Металариец
Posts: 670
Releases: 0
From: Черкассы
On Forums: 7 years 3 months
Thanks: 90 time(s)
Ukraine


Dark Ambient
Go to the top of the page
  Insert nick Quick quote
+Quote Post
post Mar 14 2019, 20:41:51
Post #3

ΕΥΜΕΝΙΔΕΣ
**************
Group: Металариец
Posts: 2,054
Releases: 25
From: Киев
On Forums: 12 years 4 weeks
Thanks: 2656 time(s)
Ukraine


ЦИТАТА(krotovich @ Mar 14 2019, 19:17:47) *
Dark Ambient

Pop/International Pop (IMG:style_emoticons/default/genius.gif) (IMG:style_emoticons/default/headcrab.png)
Go to the top of the page
  Insert nick Quick quote
+Quote Post
post Mar 14 2019, 20:48:49
Post #4

Dark Ambient Shoujo
**********
Group: Металариец
Posts: 1,104
Releases: 1
On Forums: 10 years 2 months
Thanks: 546 time(s)
Russian Federation


Eurobeat.
Go to the top of the page
  Insert nick Quick quote
+Quote Post
post Mar 16 2019, 16:46:32
Post #5

Два Литра
**
Group: Завсегдатай
Posts: 170
Releases: 0
From: Kiev
On Forums: 10 years 2 months
Thanks: 38 time(s)
Ukraine


не смешно
Go to the top of the page
  Insert nick Quick quote
+Quote Post

Reply to this topicStart new topic
2 User(s) are reading this topic (2 Guests and 0 Anonymous Users)
0 Members:

 



- Lo-Fi Version Support form
Copyrights and abuse reports form
Time is now: 20th March 2019 - 01:47:17