Welcome Guest ( Log In | Register )

> Releases Upload / Добавление релизов

Добавить релиз тут / Click here to add release
Рекомендованные обменники / Recommended file shares

 
Reply to this topicStart new topic
> Ex Libris - Ann - Chapter 1 - Anne Boleyn [ep] (2018), Symphonic/Gothic Metal (D4)
post Mar 14 2019, 16:08:25
Post #1

Serial Uploader
Group Icon
Group: V.I.P
Posts: 34,371
Releases: 32603
From: Lithuania
On Forums: 10 years 9 months
Thanks: 372132 time(s)
Lithuania


(IMG:https://metalarea.org/images/audiocovers/2019_Mar/acov_tid319040_thumb.jpg)

*Artist: Ex Libris
*Album: Ann - Chapter 1 - Anne Boleyn [ep]
*Year: 2018
*Genre: Symphonic/Gothic Metal
*Country: Netherlands (IMG:https://metalarea.org/forum/style_images/flags/Netherlands.png)
*Format: mp3@CBR320kbps
*Size: 37MB

Tracklist:
01. The Courtship 06:13
02. The Miscarriage 04:33
03. The Beheading 06:57
******************************
Total playing time: 17:43




Technical info
(IMG:https://metalarea.org/images/spectrogram/2019_Mar/db0911a9eb1afb3d8ec43690b1047f62.png)
Input File: 02. The Miscarriage.mp3
Channels : 2
Sample Rate : 44100
Precision : 16-bit
Duration : 00:04:33.31 = 12053015 samples = 20498.3 CDDA sectors
File Size : 11.0M
Bit Rate : 321k
Sample Encoding: MPEG audio (layer I, II or III)
Comments :
Title=The Miscarriage
Artist=Ex Libris
Album=Ann - Chapter 1: Anne Boleyn
Tracknumber=2
Year=2018
Discnumber=1



Register


Go to the top of the page
  Insert nick Quick quote
+Quote Post

Reply to this topicStart new topic
2 User(s) are reading this topic (2 Guests and 0 Anonymous Users)
0 Members:

 



- Lo-Fi Version Support form
Copyrights and abuse reports form
Time is now: 25th March 2019 - 06:57:04