Welcome Guest ( Log In | Register )

> Disgruntled Anthropophagi - Violently Expunged (2019), Brutal Death Metal
post Mar 14 2019, 17:07:07
Post #1

Правь статус, ####!111
**************
Group: Металариец
Posts: 16,980
Releases: 11522
From: Г.Харьков
On Forums: 7 years 1 week
Thanks: 192391 time(s)
Unknown


(IMG:https://metalarea.org/images/audiocovers/2019_Mar/acov_tid319042_thumb.jpg)

*Artist: Disgruntled Anthropophagi
*Album: Violently Expunged
*Year: 2019
*Genre: Brutal Death Metal
*Country: United States (IMG:https://metalarea.org/forum/style_images/flags/United%20States.png)
*Format: mp3@CBR320kbps
*Size: 72MB

Tracklist:
1. Ascending From Vile Execution 02:59
2. Spreading Relentless Rage 03:57
3. Evolving Malevolence 03:14
4. Psychotic Persecution 03:13
5. Realm Of Heinous Murders 04:05
6. Through A Madness Invasion 02:35
7. Existing To Annihilate 02:07
8. Unparalleld Agony 04:58
9. Violently Expunged 02:28
******************************
Total playing time: 29:36




Extended info
Joseph Lusciano Drums, Vocals (2004-present)
See also: Abolishing the Ignominious, Andromorphus Rexalia, Embludgeoned, Injurious, Manipulated Calamity, Psychophagia, ex-Animals Killing People, ex-Immortal Flesh
Neil Jay Guitars (2004-present)
See also: Manipulated Calamity


Technical info
(IMG:https://metalarea.org/images/spectrogram/2019_Mar/bb81f0b8bf857d28a85df9c2fd3e758a.png)
Input File: 05 Realm Of Heinous Murders.mp3
Channels : 2
Sample Rate : 44100
Precision : 16-bit
Duration : 00:04:05.46 = 10824786 samples = 18409.5 CDDA sectors
File Size : 10.0M
Bit Rate : 326k
Sample Encoding: MPEG audio (layer I, II or III)
Comments :
Title=Realm Of Heinous Murders
Artist=DISGRUNTLED ANTHROPOPHAGI
Album=Violently Expunged
Tracknumber=5
Year=2019



Register


Go to the top of the page
  Insert nick Quick quote
+Quote Post
 
Start new topic
Replies (1 - 3)
post Mar 16 2019, 23:40:14
Post #2

Going home. Flying high.
**************
Group: Металариец
Posts: 12,756
Releases: 0
From: The Land of Shadows
On Forums: 12 years 9 months
Thanks: 19705 time(s)
Russian Federation


Канонично и жирно! Зачёт.
Go to the top of the page
  Insert nick Quick quote
+Quote Post
post May 11 2019, 22:34:55
Post #3

Маньяк
**********
Group: Металариец
Posts: 1,342
Releases: 0
On Forums: 10 years 2 months
Thanks: 486 time(s)
Antarctica


Незамысловатый, но таки жирный кастрюльный брутол. Барабанщик неплохо играет - на нём всё и держится. На разок хорошо идёт.
Кстати, американцы записались в России, надо же.
Go to the top of the page
  Insert nick Quick quote
+Quote Post
post May 11 2019, 23:10:18
Post #4

Full-of-Hate
**************
Group: Металариец
Posts: 2,938
Releases: 0
From: Moscow
On Forums: 9 years 10 months
Thanks: 2222 time(s)
Russian Federation


ЦИТАТА(mittal @ May 12 2019, 00:34:55) *
Кстати, американцы записались в России, надо же.

Насколько я понимаю, они подписались в России на Lord of the Sick Recordings и это достаточно будничная практика для лейбла.
И артворк делал иллюстратор из России, судя по аннотации лейбла. Писались скорее всего у себя... или есть пруф?
Go to the top of the page
  Insert nick Quick quote
+Quote Post

Reply to this topicStart new topic
1 User(s) are reading this topic (1 Guests and 0 Anonymous Users)
0 Members:

 



- Lo-Fi Version Support form
Copyrights and abuse reports form
Time is now: 19th May 2019 - 09:31:13