Welcome Guest ( Log In | Register )

> Releases Upload / Добавление релизов

Добавить релиз тут / Click here to add release
Рекомендованные обменники / Recommended file shares

> Disgruntled Anthropophagi - Violently Expunged (2019), Brutal Death Metal
post Mar 14 2019, 17:07:07
Post #1

Правь статус, ####!111
**************
Group: Металариец
Posts: 16,355
Releases: 11115
From: Г.Харьков
On Forums: 6 years 10 months
Thanks: 184945 time(s)
Unknown


(IMG:https://metalarea.org/images/audiocovers/2019_Mar/acov_tid319042_thumb.jpg)

*Artist: Disgruntled Anthropophagi
*Album: Violently Expunged
*Year: 2019
*Genre: Brutal Death Metal
*Country: United States (IMG:https://metalarea.org/forum/style_images/flags/United%20States.png)
*Format: mp3@CBR320kbps
*Size: 72MB

Tracklist:
1. Ascending From Vile Execution 02:59
2. Spreading Relentless Rage 03:57
3. Evolving Malevolence 03:14
4. Psychotic Persecution 03:13
5. Realm Of Heinous Murders 04:05
6. Through A Madness Invasion 02:35
7. Existing To Annihilate 02:07
8. Unparalleld Agony 04:58
9. Violently Expunged 02:28
******************************
Total playing time: 29:36




Extended info
Joseph Lusciano Drums, Vocals (2004-present)
See also: Abolishing the Ignominious, Andromorphus Rexalia, Embludgeoned, Injurious, Manipulated Calamity, Psychophagia, ex-Animals Killing People, ex-Immortal Flesh
Neil Jay Guitars (2004-present)
See also: Manipulated Calamity


Technical info
(IMG:https://metalarea.org/images/spectrogram/2019_Mar/bb81f0b8bf857d28a85df9c2fd3e758a.png)
Input File: 05 Realm Of Heinous Murders.mp3
Channels : 2
Sample Rate : 44100
Precision : 16-bit
Duration : 00:04:05.46 = 10824786 samples = 18409.5 CDDA sectors
File Size : 10.0M
Bit Rate : 326k
Sample Encoding: MPEG audio (layer I, II or III)
Comments :
Title=Realm Of Heinous Murders
Artist=DISGRUNTLED ANTHROPOPHAGI
Album=Violently Expunged
Tracknumber=5
Year=2019



Register


Go to the top of the page
  Insert nick Quick quote
+Quote Post
 
Start new topic
Replies (1 - 1)
post Mar 16 2019, 23:40:14
Post #2

Going home. Flying high.
**************
Group: Металариец
Posts: 12,703
Releases: 0
From: The Land of Shadows
On Forums: 12 years 7 months
Thanks: 19189 time(s)
Russian Federation


Канонично и жирно! Зачёт.
Go to the top of the page
  Insert nick Quick quote
+Quote Post

Reply to this topicStart new topic
2 User(s) are reading this topic (2 Guests and 0 Anonymous Users)
0 Members:

 



- Lo-Fi Version Support form
Copyrights and abuse reports form
Time is now: 25th March 2019 - 07:06:19