Welcome Guest ( Log In | Register )

> Releases Upload / Добавление релизов

Добавить релиз тут / Click here to add release
Рекомендованные обменники / Recommended file shares

> Ebenezer - Moon Dialect (2018), Instrumental Power/Thrash Metal
post Mar 14 2019, 17:28:25
Post #1

Мегаманьяк
***********
Group: Металариец
Posts: 1,629
Releases: 1406
From: Одесса
On Forums: 10 years 9 months
Thanks: 11344 time(s)
Ukraine


(IMG:http://metalarea.org/images/audiocovers/2019_Mar/acov_tid319045_thumb.png)

*Artist: Ebenezer
*Album: Moon Dialect
*Year: 2018
*Genre: Instrumental Power/Thrash Metal
*Country: United States (IMG:http://metalarea.org/forum/style_images/flags/United%20States.png)
*Format: mp3@CBR320kbps
*Size: 73MB

Tracklist:
1. Magic Candy Box 02:33
2. Too Much Candy 02:45
3. Bad Breath Hombre 04:49
4. Celestial Irridescence 03:18
5. The Moon Made Me Do It 03:37
6. Wendy 01:04
7. Fish in the Sky 03:10
8. Father Oak Is Displeased 02:19
9. Peeling Back Dimensions 03:33
10. Paranormal Paranoia 00:51
11. ParaPara Outro 02:32
******************************
Total playing time: 30:31



Extended info
Line - up:

Dave Buss - Guitar, Bass, Keyboard, Djembe
Tyler Moyer - Drums
Sam Reibman - Saxophone
Josh Penglase - Trumpet
Jeffrey Frank - Violin


Technical info
(IMG:http://metalarea.org/images/spectrogram/2019_Mar/f429e25521015e28192a8d48013bed3d.png)
Input File: 03 Bad Breath Hombre.mp3
Channels : 2
Sample Rate : 44100
Precision : 16-bit
Duration : 00:04:49.46 = 12764966 samples = 21709.1 CDDA sectors
File Size : 11.6M
Bit Rate : 320k
Sample Encoding: MPEG audio (layer I, II or III)
Comments :
Title=Bad Breath Hombre
Artist=Ebenezer
Album=Moon Dialect
Tracknumber=3
Year=2018
Genre=Instrumental Power / Thrash Metal



Register


Go to the top of the page
  Insert nick Quick quote
+Quote Post
 
Start new topic
Replies (1 - 1)
post Mar 15 2019, 15:34:57
Post #2

Литр
*
Group: Подсевший
Posts: 72
Releases: 0
On Forums: 1 year 2 months
Thanks: 5 time(s)
Unknown


Go to the top of the page
  Insert nick Quick quote
+Quote Post

Reply to this topicStart new topic
1 User(s) are reading this topic (1 Guests and 0 Anonymous Users)
0 Members:

 



- Lo-Fi Version Support form
Copyrights and abuse reports form
Time is now: 20th March 2019 - 02:44:58