Welcome Guest ( Log In | Register )

> El Lado Oscuro - Spacefarers (2018), Power/Progressive Metal
post Mar 14 2019, 18:04:44
Post #1

Мегаманьяк
***********
Group: Металариец
Posts: 1,748
Releases: 1518
From: Одесса
On Forums: 10 years 11 months
Thanks: 12484 time(s)
Ukraine


(IMG:http://metalarea.org/images/audiocovers/2019_Mar/acov_tid319046_thumb.jpg)

*Artist: El Lado Oscuro
*Album: Spacefarers
*Year: 2018
*Genre: Power/Progressive Metal
*Country: Argentina (IMG:http://metalarea.org/forum/style_images/flags/Argentina.png)
*Format: mp3@CBR320kbps
*Size: 151MB

Tracklist:
1. The Sun Has Disappeared 04:04
2. Dark to Light 06:13
3. Seikilos Epitaph 06:44
4. Circle of Ouroboros 04:39
5. Did the Past Exist? 05:19
6. The Avenger 04:10
7. Windows 03:36
8. Darkworld 05:42
9. Spacefarers 05:46
10. Self-Communion 06:12
11. Lost Waves 06:30
12. The Hellion / Electric Eye (Judas Priest cover) 04:30
******************************
Total playing time: 1:03:25



Extended info
Line - up:

Guillermo Villarreal - Bass
Alejandro Foti - Drums (ex-Ignis)
Diego Tellechea - Guitars
Luis Lucchesi - Vocals (Charger X, For Everness (live), ex-Standarte)

(IMG:https://f4.bcbits.com/img/0014278331_10.jpg)


Technical info
(IMG:http://metalarea.org/images/spectrogram/2019_Mar/59fb183873dd391d5e7c5b06c3e150e0.png)
Input File: 02 Dark to Light.mp3
Channels : 2
Sample Rate : 44100
Precision : 16-bit
Duration : 00:06:13.05 = 16451593 samples = 27978.9 CDDA sectors
File Size : 14.9M
Bit Rate : 320k
Sample Encoding: MPEG audio (layer I, II or III)
Comments :
Title=Dark to Light
Artist=El Lado Oscuro
Album=Spacefarers
Tracknumber=2
Year=2018
Genre=Power / Progressive Metal



Register


Go to the top of the page
  Insert nick Quick quote
+Quote Post
 
Start new topic
Replies (1 - 1)
post Mar 15 2019, 09:59:35
Post #2

тебе 28, а ты все реверсами балуешься
***********
Group: Металариец
Posts: 1,630
Releases: 4
On Forums: 10 years 9 months
Thanks: 441 time(s)
Russian Federation


Аутентичный павер (хз где там прогрессив), очень приятно слушается - хороший звук, нормальный вокал, всё как надо (IMG:style_emoticons/default/20.gif)
Go to the top of the page
  Insert nick Quick quote
+Quote Post

Reply to this topicStart new topic
1 User(s) are reading this topic (1 Guests and 0 Anonymous Users)
0 Members:

 



- Lo-Fi Version Support form
Copyrights and abuse reports form
Time is now: 19th May 2019 - 09:50:15