Welcome Guest ( Log In | Register )

 
Reply to this topicStart new topic
> Ing - Victory (2019), Thrash/Death Metal (D4)
post Mar 14 2019, 19:51:48
Post #1

Правь статус, ####!111
**************
Group: Металариец
Posts: 16,980
Releases: 11522
From: Г.Харьков
On Forums: 7 years 1 week
Thanks: 192394 time(s)
Unknown


(IMG:https://metalarea.org/images/audiocovers/2019_Mar/acov_tid319050_thumb.jpg)

*Artist: Ing
*Album: Victory
*Year: 2019
*Genre: Thrash/Death Metal
*Country: South Africa (IMG:https://metalarea.org/forum/style_images/flags/South%20Africa.png)
*Format: mp3@CBR320kbps
*Size: 99MB

Tracklist:
1. Hallowed Be They Shame 03:18
2. American Exceptionalism 03:44
3. Covered in Hate 03:26
4. Psychosis 02:55
5. Violence Is Golden 03:25
6. Christ, It’s Satan! 03:52
7. Rich Man Dead Man 03:26
8. Homicidal Dreams 04:06
9. Immigrant Invasion 04:58
10. Chalice of Malice 03:23
11. Man from Palestine 03:07
12. Imperial China 03:00
13. Zumatopia 03:22
******************************
Total playing time: 46:02




Extended info
Darryn Webb Bass
Marius Theron Drums
See also: Azrail, Woltemade
Henk Kruger Guitars
Bryan Villain Vocals, Guitars (formerly bass)
See also: ex-Insurrection


Technical info
(IMG:https://metalarea.org/images/spectrogram/2019_Mar/459792f919e231062a1bebe1ffa21216.png)
Input File: 06. Christ, It\'s Satan!.mp3
Channels : 2
Sample Rate : 44100
Precision : 16-bit
Duration : 00:03:52.64 = 10259248 samples = 17447.7 CDDA sectors
File Size : 9.37M
Bit Rate : 322k
Sample Encoding: MPEG audio (layer I, II or III)
Comments :
Title=Christ, It's Satan!
Artist=Infiltrate Neutralize Govern
Album=Victory
Tracknumber=6
Year=2019
Discnumber=1



Register


Go to the top of the page
  Insert nick Quick quote
+Quote Post

Reply to this topicStart new topic
1 User(s) are reading this topic (1 Guests and 0 Anonymous Users)
0 Members:

 



- Lo-Fi Version Support form
Copyrights and abuse reports form
Time is now: 19th May 2019 - 09:37:35