Welcome Guest ( Log In | Register )

> Releases Upload / Добавление релизов

Добавить релиз тут / Click here to add release
Рекомендованные обменники / Recommended file shares

> The Whorehouse Massacre - Blood Stained Skin [ep] (2011), Sludge/Funeral Doom Metal/Drone (D6)
post Mar 14 2019, 20:53:19
Post #1

Два Литра
**
Group: Завсегдатай
Posts: 195
Releases: 17
On Forums: 1 month 3 weeks
Thanks: 259 time(s)
Canada


(IMG:https://metalarea.org/images/audiocovers/2019_Mar/acov_tid319054_thumb.jpg)

*Artist: The Whorehouse Massacre
*Album: Blood Stained Skin [ep]
*Year: 2011
*Genre: Sludge Metal/Funeral Doom Metal/Drone
*Country: Canada (IMG:https://metalarea.org/forum/style_images/flags/Canada.png)
*Format: mp3@CBR224kbps
*Size: 28MB

Tracklist:
1. Anti-Human 03:18
2. Blood Stained Skin 02:29
3. I Hope You Know (Fistula Cover) 04:14
4. The Grapevine 03:40
5. Between Death & Distortion 02:41
******************************
Total playing time: 16:22

Extended info
CD rip
Location: British Columbia (early), Xenia, Ohio, United States (later)

https://www.discogs.com/The-Whorehouse-Massacre-Blood-Stained-Skin/release/6651302

https://www.metal-archives.com/albums/The_Whorehouse_Massacre/Blood_Stained_Skin/325529



http://thebutchershed.blogspot.com/


Technical info
(IMG:https://metalarea.org/images/spectrogram/2019_Mar/8b1a404186824e541ee0731ca5e6e3a6.png)
Input File: 02 The Whorehouse Massacre - Blood Stained Skin.mp3
Channels : 2
Sample Rate : 44100
Precision : 16-bit
Duration : 00:02:29.90 = 6610414 samples = 11242.2 CDDA sectors
File Size : 4.25M
Bit Rate : 227k
Sample Encoding: MPEG audio (layer I, II or III)
Comments :
Title=Blood Stained Skin
Artist=The Whorehouse Massacre
Album=Blood Stained Skin EP
Tracknumber=2/5
Year=2011
Genre=Sludge Metal / Funeral Doom Metal / Drone
Discnumber=1/1



Register


Go to the top of the page
  Insert nick Quick quote
+Quote Post
 
Start new topic
Replies (1 - 1)
post Mar 15 2019, 15:16:49
Post #2

Литр
*
Group: Подсевший
Posts: 72
Releases: 0
On Forums: 1 year 3 months
Thanks: 5 time(s)
Unknown


I like the description, thanks for this.
Go to the top of the page
  Insert nick Quick quote
+Quote Post

Reply to this topicStart new topic
1 User(s) are reading this topic (1 Guests and 0 Anonymous Users)
0 Members:

 



- Lo-Fi Version Support form
Copyrights and abuse reports form
Time is now: 25th March 2019 - 06:46:45