Welcome Guest ( Log In | Register )

> Releases Upload / Добавление релизов

Добавить релиз тут / Click here to add release
Рекомендованные обменники / Recommended file shares

> Apes From Nine - Metal Lullaby (2019), Progressive/Power Metal
post Mar 15 2019, 03:46:17
Post #1

Serial Uploader
Group Icon
Group: V.I.P
Posts: 34,371
Releases: 32603
From: Lithuania
On Forums: 10 years 9 months
Thanks: 372132 time(s)
Lithuania


(IMG:http://metalarea.org/images/audiocovers/2019_Mar/acov_tid319056_thumb.jpg)

*Artist: Apes From Nine
*Album: Metal Lullaby
*Year: 2019
*Genre: Progressive/Power Metal
*Country: Japan (IMG:http://metalarea.org/forum/style_images/flags/Japan.png)
*Format: mp3@CBR320kbps
*Size: 110MB

Tracklist:
01. END OF WORLD
02. GASMASK
03. Good day to die
04. RISING DOWN
05. UNDERGROUND BLUE SKY
06. Break it
07. LOST CHILD
08. Sensation
09. M.A.T.P
10. GUILTY
11. OPENCAFE PCMAN
12. Discharge
******************************
Total playing time: 44:48

Technical info
(IMG:http://metalarea.org/images/spectrogram/2019_Mar/cdda9d318cd0fd6ed9315b2cb6594f6a.png)
Input File: 02. GASMASK.mp3
Channels : 2
Sample Rate : 44100
Precision : 16-bit
Duration : 00:04:30.99 = 11950483 samples = 20324 CDDA sectors
File Size : 11.4M
Bit Rate : 337k
Sample Encoding: MPEG audio (layer I, II or III)
Comments :
Title=GASMASK
Artist=Apes From Nine
Album=METAL LULLABY
Tracknumber=2/12
Year=2018



Register


Go to the top of the page
  Insert nick Quick quote
+Quote Post
 
Start new topic
Replies (1 - 4)
post Mar 15 2019, 09:00:38
Post #2

hearer & reader
**************
Group: Металариец
Posts: 7,544
Releases: 98
From: Moscow
On Forums: 11 years 6 months
Thanks: 7115 time(s)
Russian Federation


https://www.youtube.com/playlist?list=OLAK5...uGfGCPfZ28eccqU
Это скорее модерновый трэшак.


Thanks:
(1) Foneg,
Go to the top of the page
  Insert nick Quick quote
+Quote Post
post Mar 15 2019, 09:16:53
Post #3

тебе 28, а ты все реверсами балуешься
***********
Group: Металариец
Posts: 1,590
Releases: 4
On Forums: 10 years 7 months
Thanks: 418 time(s)
Russian Federation


НЕ ВРУБАЮСЬ, почему ЯПОНЦЫ ПИШУТ названия песен КАПСОМ...
У Гальнериуса это видел, ещё у кого-то тоже.

Насчёт модерн треша согласен, плюс интересно слушается - мелодично и грувово
Go to the top of the page
  Insert nick Quick quote
+Quote Post
post Mar 15 2019, 09:33:40
Post #4

Тридцать лет на борту "Тяжёлого" крейсера
***********
Group: Металариец
Posts: 1,982
Releases: 0
From: Питер
On Forums: 11 years 9 months
Thanks: 487 time(s)
Russian Federation


На счёт КАПСА - да хотят обратить внимание, что не иероглифами, типа, мы другие японцы, европеоидные, и поём-играем круче остальных земляков. Собственно, по этой же причине некоторые отечественные команды пишут название своей группы по-английски, а поют по-русски
И не понаслышке знаю, что очень многие японцы боготворят западные ценности и абстрагируются от своей эстрады, которая всё ещё пребывает на уровне СССР а-ля 80-ые


Thanks:
(1) Foneg,
Go to the top of the page
  Insert nick Quick quote
+Quote Post
post Mar 16 2019, 12:48:13
Post #5

Победитель судьбы
**************
Group: Металариец
Posts: 5,433
Releases: 0
From: Страны Мамонтов
On Forums: 12 years 1 month
Thanks: 1898 time(s)
Antarctica


ЦИТАТА(sadmannn @ Mar 15 2019, 11:33:40) *
И не понаслышке знаю, что очень многие японцы боготворят западные ценности и абстрагируются от своей эстрады, которая всё ещё пребывает на уровне СССР а-ля 80-ые

Это откуда у тебя такая непонаслышка, интересно?
Go to the top of the page
  Insert nick Quick quote
+Quote Post

Reply to this topicStart new topic
2 User(s) are reading this topic (2 Guests and 0 Anonymous Users)
0 Members:

 



- Lo-Fi Version Support form
Copyrights and abuse reports form
Time is now: 25th March 2019 - 06:20:29