Welcome Guest ( Log In | Register )

> Releases Upload / Добавление релизов

Добавить релиз тут / Click here to add release
Рекомендованные обменники / Recommended file shares

> Athica - Decimation (2019), Death Metal
post Mar 15 2019, 03:49:39
Post #1

Serial Uploader
Group Icon
Group: V.I.P
Posts: 34,371
Releases: 32603
From: Lithuania
On Forums: 10 years 9 months
Thanks: 372132 time(s)
Lithuania


(IMG:http://metalarea.org/images/audiocovers/2019_Mar/acov_tid319057_thumb.jpg)

*Artist: Athica
*Album: Decimation
*Year: 2019
*Genre: Death Metal
*Country: Panama (IMG:http://metalarea.org/forum/style_images/flags/Panama.png)
*Format: mp3@CBR320kbps
*Size: 96MB

Tracklist:
01. Decimation
02. Simplicity and Dispossession
03. Dystopia
04. Leeches
05. The Black Void
06. Thrown to the Serpents
07. Menticide
08. The Sixth Extinction
09. Erased from Reality
10. Aftermath
******************************
Total playing time: 37:57



Technical info
(IMG:http://metalarea.org/images/spectrogram/2019_Mar/0f92c19f4d595261f64f534e71ee9064.png)
Input File: 02. Simplicity and Dispossession.mp3
Channels : 2
Sample Rate : 44100
Precision : 16-bit
Duration : 00:02:49.60 = 7479316 samples = 12719.9 CDDA sectors
File Size : 7.60M
Bit Rate : 359k
Sample Encoding: MPEG audio (layer I, II or III)
Comments :
Title=Simplicity and Dispossession
Artist=Athica
Album=Decimation
Tracknumber=2/10
Year=2019



Register


Go to the top of the page
  Insert nick Quick quote
+Quote Post
 
Start new topic
Replies (1 - 4)
post Mar 15 2019, 08:51:13
Post #2

hearer & reader
**************
Group: Металариец
Posts: 7,544
Releases: 98
From: Moscow
On Forums: 11 years 6 months
Thanks: 7116 time(s)
Russian Federation




Вроде бы, изжили кор.
Register


Thanks:
(2) Foneg, KVRT,
Go to the top of the page
  Insert nick Quick quote
+Quote Post
post Mar 15 2019, 10:24:05
Post #3

тебе 28, а ты все реверсами балуешься
***********
Group: Металариец
Posts: 1,590
Releases: 4
On Forums: 10 years 7 months
Thanks: 418 time(s)
Russian Federation


ЦИТАТА(AHBAnep @ Mar 15 2019, 10:51:13) *


Вроде бы, изжили кор.


Кор прослушивается, как по мне, но совершенно не напрягает.
Go to the top of the page
  Insert nick Quick quote
+Quote Post
post Mar 16 2019, 21:48:28
Post #4

MDM-Thrash Metal
**************
Group: Металариец
Posts: 7,716
Releases: 432
From: Одесса
On Forums: 11 years 7 months
Thanks: 14426 time(s)
Ukraine


ЦИТАТА(Foneg @ Mar 15 2019, 13:24:05) *
Кор прослушивается, как по мне, но совершенно не напрягает.

(IMG:style_emoticons/default/dooo.gif) Deathcore
Go to the top of the page
  Insert nick Quick quote
+Quote Post
post Mar 17 2019, 17:39:45
Post #5

ME[ta]LLOMAN
**************
Group: Металариец
Posts: 4,893
Releases: 3
From: Hughes'sRegion\Avdeyevka
On Forums: 12 years 11 months
Thanks: 1810 time(s)
Honduras


ЦИТАТА(Foneg @ Mar 15 2019, 09:24:05) *
Кор прослушивается, как по мне, но совершенно не напрягает.

весьма.. напрягаетт (IMG:style_emoticons/default/bye.gif)
Go to the top of the page
  Insert nick Quick quote
+Quote Post

Reply to this topicStart new topic
2 User(s) are reading this topic (2 Guests and 0 Anonymous Users)
0 Members:

 



- Lo-Fi Version Support form
Copyrights and abuse reports form
Time is now: 25th March 2019 - 07:00:42