Welcome Guest ( Log In | Register )

> Releases Upload / Добавление релизов

Добавить релиз тут / Click here to add release
Рекомендованные обменники / Recommended file shares

> Blackmail - Blackmail (2019), Thrash/Groove Metal (D5)
post Mar 15 2019, 03:52:43
Post #1

Serial Uploader
Group Icon
Group: V.I.P
Posts: 34,371
Releases: 32603
From: Lithuania
On Forums: 10 years 9 months
Thanks: 372132 time(s)
Lithuania


(IMG:http://metalarea.org/images/audiocovers/2019_Mar/acov_tid319058_thumb.jpg)

*Artist: Blackmail
*Album: Blackmail
*Year: 2019
*Genre: Thrash/Groove Metal
*Country: Ukraine (IMG:http://metalarea.org/forum/style_images/flags/Ukraine.png)
*Format: mp3@CBR320kbps
*Size: 67MB

Tracklist:
01. На върха
02. Reckless Joke
03. Home
04. Sleep Barely
05. Кой съм аз
06. Abyss
07. Mean Cold Old Machine
08. Носим с нас порой
09. Всичко друго
10. By Myself
******************************
Total playing time: 26:07



Technical info
(IMG:http://metalarea.org/images/spectrogram/2019_Mar/e994484d488109d35383a1182f1a41da.png)
Input File: 02. Reckless Joke.mp3
Channels : 2
Sample Rate : 44100
Precision : 16-bit
Duration : 00:02:33.12 = 6752372 samples = 11483.6 CDDA sectors
File Size : 6.84M
Bit Rate : 358k
Sample Encoding: MPEG audio (layer I, II or III)
Comments :
Title=Reckless Joke
Artist=blackmail
Album=Blackmail
Tracknumber=2/10
Year=2019



Register


Go to the top of the page
  Insert nick Quick quote
+Quote Post
 
Start new topic
Replies (1 - 5)
post Mar 15 2019, 08:23:36
Post #2

hearer & reader
**************
Group: Металариец
Posts: 7,544
Releases: 98
From: Moscow
On Forums: 11 years 6 months
Thanks: 7116 time(s)
Russian Federation


https://music.yandex.ru/album/6955439


Thanks:
(3) Foneg, gwar, KVRT,
Go to the top of the page
  Insert nick Quick quote
+Quote Post
post Mar 15 2019, 10:19:05
Post #3

тебе 28, а ты все реверсами балуешься
***********
Group: Металариец
Posts: 1,590
Releases: 4
On Forums: 10 years 7 months
Thanks: 418 time(s)
Russian Federation


Очень много панкухи услышал, но грувовые куски качают.
Плюс порадовало, что поют на двух языках.
Go to the top of the page
  Insert nick Quick quote
+Quote Post
post Mar 15 2019, 16:09:27
Post #4

Group: Подсевший
Posts: 17
Releases: 0
On Forums: 10 years 10 months
Thanks: 5 time(s)
Russian Federation


ЦИТАТА(necroscum @ Mar 15 2019, 07:52:43) *
*Genre: Thrash/Groove Metal

(IMG:style_emoticons/default/23.gif) Hardcore.
Go to the top of the page
  Insert nick Quick quote
+Quote Post
post Mar 16 2019, 21:33:21
Post #5

MDM-Thrash Metal
**************
Group: Металариец
Posts: 7,716
Releases: 432
From: Одесса
On Forums: 11 years 7 months
Thanks: 14426 time(s)
Ukraine




Кстати, а названия песен то не по-украински! Или на польском, или на болгарском.

Нашел. Таки это болгары!!!
Facebook в шапке ведет на украинскую команду.
А вот который на болгарскую!
Go to the top of the page
  Insert nick Quick quote
+Quote Post
post Mar 19 2019, 17:08:13
Post #6

Три Литра
***
Group: Завсегдатай
Posts: 220
Releases: 0
From: Россия
On Forums: 7 years 1 month
Thanks: 75 time(s)
Russian Federation


released November 17, 2018

София, Bulgaria

И жанр:харькоре пунк

Go to the top of the page
  Insert nick Quick quote
+Quote Post

Reply to this topicStart new topic
1 User(s) are reading this topic (1 Guests and 0 Anonymous Users)
0 Members:

 



- Lo-Fi Version Support form
Copyrights and abuse reports form
Time is now: 25th March 2019 - 07:04:34