Welcome Guest ( Log In | Register )

> Dogtor - Attack On All Fronts! The Best Of Dogtor (2019), Thrash Metal
post Mar 15 2019, 03:54:25
Post #1

Serial Uploader
Group Icon
Group: V.I.P
Posts: 35,820
Releases: 34024
From: Lithuania
On Forums: 11 years 2 months
Thanks: 393203 time(s)
Lithuania


(IMG:http://metalarea.org/images/audiocovers/2019_Mar/acov_tid319059_thumb.jpg)

*Artist: Dogtor
*Album: Attack On All Fronts! The Best Of Dogtor
*Year: 2019
*Genre: Thrash Metal
*Country: Finland (IMG:http://metalarea.org/forum/style_images/flags/Finland.png)
*Format: mp3@CBR320kbps
*Size: 88MB

Tracklist:
01. Air Raid
02. Motor Metal Mayhem
03. Turbocharger
04. Hellhound
05. Snake in a Suit
06. Horseman
07. The Knife
08. Can't Fool Me
09. Bad Move
10. C'mon Go Go!
11. Camaro
12. Ride Forever (Ride for Life)
******************************
Total playing time: 37:02

Technical info
(IMG:http://metalarea.org/images/spectrogram/2019_Mar/8968faa0c1b3dd506dd39fa17df9f032.png)
Input File: 02. Motor Metal Mayhem.mp3
Channels : 2
Sample Rate : 44100
Precision : 16-bit
Duration : 00:02:45.60 = 7303048 samples = 12420.1 CDDA sectors
File Size : 6.90M
Bit Rate : 333k
Sample Encoding: MPEG audio (layer I, II or III)
Comments :
Title=Motor Metal Mayhem
Artist=Dogtor
Album=Attack on All Fronts! the Best of Dogtor
Tracknumber=2/12
Year=2019



Register


Go to the top of the page
  Insert nick Quick quote
+Quote Post
 
Start new topic
Replies (1 - 3)
post Mar 15 2019, 11:42:30
Post #2

hearer & reader
**************
Group: Металариец
Posts: 7,949
Releases: 103
From: Moscow
On Forums: 11 years 11 months
Thanks: 7453 time(s)
Russian Federation


Dogtor
Helsinki, Finland


Shellshokk (2016):
Motor Metal Mayhem (2013): https://www.youtube.com/watch?v=LRYqBw9Zf6A...-GPwlvb0uxvmxXb
Dogtor's Order (2012): https://www.youtube.com/watch?v=GHuBJuqFw0A...ktW6BAA237oM-DG
EP Fire At Will (2010): https://www.youtube.com/watch?v=7MsFmzF2tAA...3wByVPhb3HbLbRF
Никаким трэшем тут не пахнет.
Go to the top of the page
  Insert nick Quick quote
+Quote Post
post Mar 15 2019, 13:53:30
Post #3

Восемь Литров
********
Group: Металариец
Posts: 818
Releases: 0
From: China
On Forums: 11 years 7 months
Thanks: 568 time(s)
Bulgaria


Motorhead-influenced stuff; pleasant feelgood power/speed metal with not much thrash present
Go to the top of the page
  Insert nick Quick quote
+Quote Post
post Mar 16 2019, 21:18:59
Post #4

MDM-Thrash Metal
**************
Group: Металариец
Posts: 8,529
Releases: 564
From: Одесса
On Forums: 12 years 1 week
Thanks: 16551 time(s)
Ukraine


ЦИТАТА(metala @ Mar 15 2019, 16:53:30) *
with not much thrash present

(IMG:style_emoticons/default/dooo.gif) Как то без треша здесь!
Go to the top of the page
  Insert nick Quick quote
+Quote Post

Reply to this topicStart new topic
1 User(s) are reading this topic (1 Guests and 0 Anonymous Users)
0 Members:

 



- Lo-Fi Version Support form
Copyrights and abuse reports form
Time is now: 19th August 2019 - 19:33:12