Welcome Guest ( Log In | Register )

> Releases Upload / Добавление релизов

Добавить релиз тут / Click here to add release
Рекомендованные обменники / Recommended file shares

> Urza - The Omnipresence Of Loss (2019), Funeral Doom Metal
post Mar 15 2019, 08:37:18
Post #1

Девять Литров
*********
Group: Металариец
Posts: 906
Releases: 760
From: Новороссийск
On Forums: 7 years 10 months
Thanks: 13097 time(s)
Russian Federation


(IMG:https://metalarea.org/images/audiocovers/2019_Mar/acov_tid319064_thumb.jpg)

*Artist: Urza
*Album: The Omnipresence Of Loss
*Year: 2019
*Genre: Funeral Doom Metal
*Country: Germany (IMG:https://metalarea.org/forum/style_images/flags/Germany.png)
*Format: mp3@CBR320kbps
*Size: 140MB

Tracklist:
01. Lost In Decline 17:18
02. A History of Ghosts 10:36
03. Path of Tombs 11:42
04. From The Vaults To Extermination 09:04
05. Demystifying The Blackness 12:39
******************************
Total playing time: 1:01:02




Technical info
(IMG:https://metalarea.org/images/spectrogram/2019_Mar/a2c4c5679de96ec1f7cd9db4e3c0843e.png)
Input File: 01 - Lost in Decline.mp3
Channels : 2
Sample Rate : 44100
Precision : 16-bit
Duration : 00:17:18.17 = 45783121 samples = 77862.5 CDDA sectors
File Size : 41.5M
Bit Rate : 320k
Sample Encoding: MPEG audio (layer I, II or III)
Comments :
Title=Lost in Decline
Artist=Urza
Album=The Omnipresence Of Loss
Tracknumber=01
Year=2019
Genre=Doom Metal



Register


Go to the top of the page
  Insert nick Quick quote
+Quote Post
 
Start new topic
Replies (1 - 4)
post Mar 18 2019, 09:01:12    Сейчас играет: Möhrkvlth - Disheol
Post #2

antithesis
**************
Group: Металариец
Posts: 2,583
Releases: 30
From: VRN
On Forums: 8 years 10 months
Thanks: 1448 time(s)
Russian Federation


mirror, pls
Go to the top of the page
  Insert nick Quick quote
+Quote Post
post Mar 18 2019, 15:50:38
Post #3

the faceless one
Group Icon
Group: S-moderation team
Posts: 8,954
Releases: 1764
On Forums: 10 years 7 months
Thanks: 104000 time(s)
Russian Federation


Register


Thanks:
Go to the top of the page
  Insert nick Quick quote
+Quote Post
post Mar 18 2019, 18:31:57
Post #4

Правь статус, ####!111
**************
Group: Металариец
Posts: 2,224
Releases: 1
From: Dnipro
On Forums: 10 years 8 months
Thanks: 567 time(s)
Ukraine


Порадовали, то что нужно. (IMG:style_emoticons/default/dooo.gif)
Go to the top of the page
  Insert nick Quick quote
+Quote Post
post Mar 19 2019, 18:13:55
Post #5

赑屃
***
Group: Завсегдатай
Posts: 230
Releases: 5
From: Луганск
On Forums: 1 year 11 months
Thanks: 114 time(s)
Russian Federation


Своеобразный такой альбом.. На фунерале замешан, да.. Но дум-дэзовая мощь так и прёт, вплоть до дэзовых завихрений.. Попахивает дроуном временами и немного сладжем.. 05. Demystifying the Blackness - самая вкусняшка, гитарки доставляют..
Go to the top of the page
  Insert nick Quick quote
+Quote Post

Reply to this topicStart new topic
2 User(s) are reading this topic (2 Guests and 0 Anonymous Users)
0 Members:

 



- Lo-Fi Version Support form
Copyrights and abuse reports form
Time is now: 25th March 2019 - 06:21:27