Welcome Guest ( Log In | Register )

> Releases Upload / Добавление релизов

Добавить релиз тут / Click here to add release
Рекомендованные обменники / Recommended file shares

> Sukkuba - Woman ≠ Human (2019), Goregrind
post Mar 15 2019, 09:40:08
Post #1

Время Мары
**************
Group: Металариец
Posts: 3,020
Releases: 394
From: Харьков
On Forums: 9 years 9 months
Thanks: 7593 time(s)
Ukraine


(IMG:http://metalarea.org/images/audiocovers/2019_Mar/acov_tid319065_thumb.jpg)

*Artist: Sukkuba
*Album: Woman ≠ Human
*Year: 2019
*Genre: Goregrind
*Country: Russian Federation (IMG:http://metalarea.org/forum/style_images/flags/Russian%20Federation.png)
*Format: mp3@CBR320kbps
*Size: 50MB

Tracklist:
1. Концлагерь Бодипозитив
2. Феминизм Болтается В Петле Из Женских Прав
3. Экс-супругу В Газенваген Пропишу
4. Плацента-гриль
5. Кесарево Влечение
6. Докажи Любовь Кредитом
7. Мы Закроем Куниверситет
8. Menstruality
9. Сберегла Промежность Для Могилы
10. Плод Висит На Пуповине (Баба Любит Харакири)
11. Изнасиловал - Женись
12. Вскрытовеноёб
13. Лучшие Друзья Матушек - Это Алименты
14. Hidden Track
******************************
Total playing time: 21:51

Technical info
(IMG:http://metalarea.org/images/spectrogram/2019_Mar/905b31f93880aa17f3b00ad81efcf6e2.png)
Input File: 05 - Кесарево Влечение.mp3
Channels : 2
Sample Rate : 44100
Precision : 16-bit
Duration : 00:01:45.42 = 4648934 samples = 7906.35 CDDA sectors
File Size : 4.22M
Bit Rate : 320k
Sample Encoding: MPEG audio (layer I, II or III)
Comments :
Title=Кесарево Влечение
Artist=Sukkuba
Album=Woman ≠ Human
Tracknumber=05
Year=2019



Register


Go to the top of the page
  Insert nick Quick quote
+Quote Post
 
Start new topic
Replies (1 - 4)
post Mar 15 2019, 12:47:52
Post #2

Попсовик от брутала
**************
Group: Металариец
Posts: 6,638
Releases: 63
From: Минск
On Forums: 10 years 3 months
Thanks: 5552 time(s)
Belarus


А группа-то на портале запрещена (IMG:style_emoticons/default/genius.gif)


Thanks:
(1) RotAnus,
Go to the top of the page
  Insert nick Quick quote
+Quote Post
post Mar 15 2019, 13:35:55
Post #3

Пусто
**********
Group: Металариец
Posts: 1,350
Releases: 27
From: Санкт-Петербург
On Forums: 12 years 2 months
Thanks: 1361 time(s)
Russian Federation


креативненькие названия (IMG:style_emoticons/default/crazy.gif)
Go to the top of the page
  Insert nick Quick quote
+Quote Post
post Mar 15 2019, 13:37:59
Post #4

кручу наждак
**************
Group: Металариец
Posts: 3,755
Releases: 95
From: Самара
On Forums: 8 years 10 months
Thanks: 2809 time(s)
Russian Federation


ЦИТАТА(Tular @ Mar 15 2019, 12:47:52) *
А группа-то на портале запрещена (IMG:style_emoticons/default/genius.gif)

Пащиму?
Go to the top of the page
  Insert nick Quick quote
+Quote Post
post Mar 15 2019, 15:58:25
Post #5

Четыре Литра
****
Group: Металариец
Posts: 367
Releases: 13
From: Подольск
On Forums: 9 years 9 months
Thanks: 434 time(s)
Russian Federation


ЦИТАТА(Tular @ Mar 15 2019, 14:47:52) *
А группа-то на портале запрещена (IMG:style_emoticons/default/genius.gif)


надо брать (IMG:style_emoticons/default/genius.gif)
так-то сочный грайнд вобщемта (IMG:style_emoticons/default/banana.gif) (IMG:style_emoticons/default/20.gif)
Go to the top of the page
  Insert nick Quick quote
+Quote Post

Reply to this topicStart new topic
1 User(s) are reading this topic (1 Guests and 0 Anonymous Users)
0 Members:

 



- Lo-Fi Version Support form
Copyrights and abuse reports form
Time is now: 25th March 2019 - 22:56:16