Welcome Guest ( Log In | Register )

> Releases Upload / Добавление релизов

Добавить релиз тут / Click here to add release
Рекомендованные обменники / Recommended file shares

 
Reply to this topicStart new topic
> Puzhmer - Igni Et Ferro [ep] (2019), Black/Doom Metal
post Mar 15 2019, 10:42:41
Post #1

Девять Литров
*********
Group: Металариец
Posts: 906
Releases: 760
From: Новороссийск
On Forums: 7 years 10 months
Thanks: 13097 time(s)
Russian Federation


(IMG:https://metalarea.org/images/audiocovers/2019_Mar/acov_tid319066_thumb.jpg)

*Artist: Puzhmer
*Album: Igni Et Ferro [ep]
*Year: 2019
*Genre: Black/Doom Metal
*Country: Russian Federation (IMG:https://metalarea.org/forum/style_images/flags/Russian%20Federation.png)
*Format: mp3@CBR320kbps
*Size: 30MB

Tracklist:
01. I 05:26
02. II 04:44
03. III 03:13
******************************
Total playing time: 13:24



Technical info
(IMG:https://metalarea.org/images/spectrogram/2019_Mar/e0dc01ad0de95a447197833293790d72.png)
Input File: 01. I.mp3
Channels : 2
Sample Rate : 44100
Precision : 16-bit
Duration : 00:05:26.81 = 14412453 samples = 24511 CDDA sectors
File Size : 13.1M
Bit Rate : 320k
Sample Encoding: MPEG audio (layer I, II or III)
Comments :
Title=I
Artist=Puzhmer
Album=Igni Et Ferro
Tracknumber=01
Year=2019
Genre=Black Metal



Register


Go to the top of the page
  Insert nick Quick quote
+Quote Post

Reply to this topicStart new topic
2 User(s) are reading this topic (2 Guests and 0 Anonymous Users)
0 Members:

 



- Lo-Fi Version Support form
Copyrights and abuse reports form
Time is now: 25th March 2019 - 06:29:03