Welcome Guest ( Log In | Register )

> Acid Brigade - Storming Into This Land (2019), Thrash Metal
post Mar 15 2019, 11:38:43
Post #1

Правь статус, ####!111
**************
Group: Металариец
Posts: 17,474
Releases: 11849
From: Г.Харьков
On Forums: 7 years 1 month
Thanks: 198281 time(s)
Unknown


(IMG:https://metalarea.org/images/audiocovers/2019_Mar/acov_tid319068_thumb.jpg)

*Artist: Acid Brigade
*Album: Storming Into This Land
*Year: 2019
*Genre: Thrash Metal
*Country: Brazil (IMG:https://metalarea.org/forum/style_images/flags/Brazil.png)
*Format: mp3@CBR320kbps
*Size: 105MB

Tracklist:
1. All Order Shall Fall 08:00
2. Gonna Get Me Some 06:03
3. Bitter End 03:33
4. Raging War 06:28
5. Storming into This Land 06:14
6. When Flesh Wants More Power 05:04
7. No Chance of Rebirth 06:03
8. Acid Brigade 03:22
******************************
Total playing time: 44:47




Extended info
Bruno Lopes Guitars (track 3), Bass, Vocals (backing)
Rodrigo Freitas Guitars, Vocals (backing)
Yuri Lima Vocals
Douglas Igarashi Drums


Technical info
(IMG:https://metalarea.org/images/spectrogram/2019_Mar/62a162fdc6e720fc259e1838e9a4014c.png)
Input File: 04 - Raging War.mp3
Channels : 2
Sample Rate : 44100
Precision : 16-bit
Duration : 00:06:28.60 = 17137084 samples = 29144.7 CDDA sectors
File Size : 16.0M
Bit Rate : 328k
Sample Encoding: MPEG audio (layer I, II or III)
Comments :
Title=Raging War
Artist=Acid Brigade
Album=Storming into This Land
Tracknumber=4
Year=2019
Genre=Thrash Metal
Discnumber=1



Register


Go to the top of the page
  Insert nick Quick quote
+Quote Post
 
Start new topic
Replies (1 - 5)
post Mar 15 2019, 12:02:06
Post #2

Правь статус, ####!111
**************
Group: Металариец
Posts: 17,474
Releases: 11849
From: Г.Харьков
On Forums: 7 years 1 month
Thanks: 198281 time(s)
Unknown


Cloud Mail 320
Register


Thanks:
(1) postal67,
Go to the top of the page
  Insert nick Quick quote
+Quote Post
post Mar 15 2019, 13:15:33
Post #3

Пять Литров
*****
Group: Металариец
Posts: 460
Releases: 0
From: Град Московский
On Forums: 11 years 5 months
Thanks: 109 time(s)
Russian Federation


По превью,олдово,очень понравилось...


Thanks:
(1) pichileon,
Go to the top of the page
  Insert nick Quick quote
+Quote Post
post Mar 15 2019, 15:34:29
Post #4

Пять Литров
*****
Group: Металариец
Posts: 460
Releases: 0
From: Град Московский
On Forums: 11 years 5 months
Thanks: 109 time(s)
Russian Federation


Отличная банда,в моём вкусе!!!


Thanks:
Go to the top of the page
  Insert nick Quick quote
+Quote Post
post Mar 15 2019, 18:04:13
Post #5

Три Литра
***
Group: Завсегдатай
Posts: 271
Releases: 1
From: Moscow
On Forums: 7 years 3 weeks
Thanks: 68 time(s)
Russian Federation


Модерновости перебор слегка, но таки любо.
Go to the top of the page
  Insert nick Quick quote
+Quote Post
post Mar 16 2019, 21:16:05
Post #6

MDM-Thrash Metal
**************
Group: Металариец
Posts: 8,204
Releases: 459
From: Одесса
On Forums: 11 years 10 months
Thanks: 15313 time(s)
Ukraine


- All 8 Tracks
Go to the top of the page
  Insert nick Quick quote
+Quote Post

Reply to this topicStart new topic
1 User(s) are reading this topic (1 Guests and 0 Anonymous Users)
0 Members:

 



- Lo-Fi Version Support form
Copyrights and abuse reports form
Time is now: 24th June 2019 - 16:15:32