Welcome Guest ( Log In | Register )

> Mindmare - Psychotic Regression (2019), Melodic Death Metal
post Mar 15 2019, 12:31:45
Post #1

Правь статус, ####!111
**************
Group: Металариец
Posts: 17,054
Releases: 11579
From: Г.Харьков
On Forums: 7 years 2 weeks
Thanks: 193383 time(s)
Unknown


(IMG:https://metalarea.org/images/audiocovers/2019_Mar/acov_tid319070_thumb.jpg)

*Artist: Mindmare
*Album: Psychotic Regression
*Year: 2019
*Genre: Melodic Death Metal
*Country: Denmark (IMG:https://metalarea.org/forum/style_images/flags/Denmark.png)
*Format: mp3@CBR320kbps
*Size: 97MB

Tracklist:
01. Psychotic Regression
02. A New Slave of Mankind
03. Let It Bleed
04. The Deceit
05. Remission of Sins
06. Anthem of Aggression
07. Spit of Agony
08. Chaosride
09. Broken Black Nails
10. The Jonah Complex
******************************
Total playing time: 42:06



Extended info
Lars Lund Andersen Bass
See also: ex-Golem, ex-Morfeus
Martin Wolfram Klausen Drums
Michael Hansen Buur Guitars
See also: ex-Morfeus
Vaeis Omar Guitars
See also: Mezmerizer
Joachim Asmussen Vocals
See also: ex-Lustration, ex-Megalomania 999


Technical info
(IMG:https://metalarea.org/images/spectrogram/2019_Mar/c98cb05bab0b286bdf3dc82a9e9684c1.png)
Input File: 3 - Let It Bleed.mp3
Channels : 2
Sample Rate : 44100
Precision : 16-bit
Duration : 00:04:01.02 = 10628938 samples = 18076.4 CDDA sectors
File Size : 9.76M
Bit Rate : 324k
Sample Encoding: MPEG audio (layer I, II or III)
Comments :
Title=Let It Bleed
Artist=Mindmare
Album=Psychotic Regression
Tracknumber=3
Year=2019
Genre=Metal
Discnumber=1



Register


Go to the top of the page
  Insert nick Quick quote
+Quote Post
 
Start new topic
Replies (1 - 6)
post Mar 15 2019, 13:03:07
Post #2

Правь статус, ####!111
**************
Group: Металариец
Posts: 17,054
Releases: 11579
From: Г.Харьков
On Forums: 7 years 2 weeks
Thanks: 193383 time(s)
Unknown


Cloud Mail 320
Register


Thanks:
Go to the top of the page
  Insert nick Quick quote
+Quote Post
post Mar 15 2019, 13:05:07
Post #3

Восемь Литров
********
Group: Металариец
Posts: 890
Releases: 0
From: Харьков
On Forums: 11 years 2 months
Thanks: 661 time(s)
Ukraine


Превью годненькое
Go to the top of the page
  Insert nick Quick quote
+Quote Post
post Mar 15 2019, 17:44:55
Post #4

Шесть Литров
******
Group: Металариец
Posts: 699
Releases: 0
From: Черкассы
On Forums: 7 years 5 months
Thanks: 94 time(s)
Ukraine


ЦИТАТА(Nattfodd @ 15th March 2019 - 14:05:07) *
Превью годненькое
Modernовое (IMG:style_emoticons/default/13.gif)
Go to the top of the page
  Insert nick Quick quote
+Quote Post
post Mar 15 2019, 21:37:39
Post #5

Тридцать лет на борту "Тяжёлого" крейсера
**************
Group: Металариец
Posts: 2,039
Releases: 0
From: Питер
On Forums: 11 years 11 months
Thanks: 509 time(s)
Russian Federation


Утомляют быстро однообразием и вторичностью материала
Go to the top of the page
  Insert nick Quick quote
+Quote Post
post Mar 16 2019, 20:53:29
Post #6

MDM-Thrash Metal
**************
Group: Металариец
Posts: 8,061
Releases: 448
From: Одесса
On Forums: 11 years 9 months
Thanks: 15004 time(s)
Ukraine


Третьесорт (IMG:style_emoticons/default/1488.gif)
Go to the top of the page
  Insert nick Quick quote
+Quote Post
post Mar 20 2019, 14:20:20
Post #7

Ъ
**************
Group: Металариец
Posts: 9,515
Releases: 9
On Forums: 10 years 4 months
Thanks: 1847 time(s)
Sweden


ЦИТАТА(Andrew @ Mar 17 2019, 02:53:29) *
Третьесорт (IMG:style_emoticons/default/1488.gif)


Во истину третьесорт! (IMG:style_emoticons/default/1488.gif)
Go to the top of the page
  Insert nick Quick quote
+Quote Post

Reply to this topicStart new topic
1 User(s) are reading this topic (1 Guests and 0 Anonymous Users)
0 Members:

 



- Lo-Fi Version Support form
Copyrights and abuse reports form
Time is now: 26th May 2019 - 10:49:28