Welcome Guest ( Log In | Register )

> Releases Upload / Добавление релизов

Добавить релиз тут / Click here to add release
Рекомендованные обменники / Recommended file shares

 
Reply to this topicStart new topic
> Wulafir - I [ep] (2019), Pagan/Black Metal
post Mar 15 2019, 13:39:50
Post #1

Девять Литров
*********
Group: Металариец
Posts: 906
Releases: 760
From: Новороссийск
On Forums: 7 years 10 months
Thanks: 13097 time(s)
Russian Federation


(IMG:https://metalarea.org/images/audiocovers/2019_Mar/acov_tid319071_thumb.jpg)

*Artist: Wulafir
*Album: I [ep]
*Year: 2019
*Genre: Pagan/Black Metal
*Country: Sweden (IMG:https://metalarea.org/forum/style_images/flags/Sweden.png)
*Format: mp3@CBR320kbps
*Size: 56MB

Tracklist:
01. Avgrundsanden 06:48
02. Serpent Of Fire 06:48
03. Without The Sun 05:58
04. Underneath Your Wing 05:08
******************************
Total playing time: 24:43



Technical info
(IMG:https://metalarea.org/images/spectrogram/2019_Mar/97836532382ea8bfe065a0983c675683.png)
Input File: 01 Avgrundsanden.mp3
Channels : 2
Sample Rate : 44100
Precision : 16-bit
Duration : 00:06:48.08 = 17996504 samples = 30606.3 CDDA sectors
File Size : 16.3M
Bit Rate : 320k
Sample Encoding: MPEG audio (layer I, II or III)
Comments :
Title=Avgrundsanden
Artist=WulafiR
Album=I
Tracknumber=01
Year=2019
Genre=Black Metal



Register


Go to the top of the page
  Insert nick Quick quote
+Quote Post

Reply to this topicStart new topic
2 User(s) are reading this topic (2 Guests and 0 Anonymous Users)
0 Members:

 



- Lo-Fi Version Support form
Copyrights and abuse reports form
Time is now: 25th March 2019 - 07:04:57