Welcome Guest ( Log In | Register )

 
Reply to this topicStart new topic
> Twisted Tower Dire - Wars In The Unknown (2019), Power Metal (D)
post Mar 15 2019, 13:53:46
Post #1

Serial Uploader
Group Icon
Group: V.I.P
Posts: 35,215
Releases: 33430
From: Lithuania
On Forums: 10 years 11 months
Thanks: 383312 time(s)
Lithuania


(IMG:https://metalarea.org/images/audiocovers/2019_Mar/acov_tid319072_thumb.jpg)

*Artist: Twisted Tower Dire
*Album: Wars In The Unknown
*Year: 2019
*Genre: Power Metal
*Country: United States (IMG:https://metalarea.org/forum/style_images/flags/United%20States.png)
*Format: mp3@CBR320kbps
*Size: 102MB

Tracklist:
01. The Thundering 04:15
02. True North 04:34
03. Tear You Apart 03:34
04. Light the Swords on Fire 03:41
05. And the Sharks Came Then 04:57
06. Riding the Fortress 04:07
07. Eons Beyond 03:33
08. A Howl in the Wind 04:28
09. The Beast I Fear 03:56
10. These Ghosts Can Never Leave 04:05
******************************
Total playing time: 41:10

(IMG:https://metalarea.org/images/myspace.png)



(IMG:https://metalarea.org/images/youtube.png)

Technical info
(IMG:https://metalarea.org/images/spectrogram/2019_Mar/237b117471782799378ec253b3effb1c.png)
Input File: 02 True North.mp3
Channels : 2
Sample Rate : 44100
Precision : 16-bit
Duration : 00:04:33.96 = 12081812 samples = 20547.3 CDDA sectors
File Size : 11.9M
Bit Rate : 347k
Sample Encoding: MPEG audio (layer I, II or III)
Comments :
Title=True North
Artist=Twisted Tower Dire
Album=Wars in the Unknown
Tracknumber=2/10
Year=2019
Genre=USPM



Register


Go to the top of the page
  Insert nick Quick quote
+Quote Post

Reply to this topicStart new topic
1 User(s) are reading this topic (1 Guests and 0 Anonymous Users)
0 Members:

 



- Lo-Fi Version Support form
Copyrights and abuse reports form
Time is now: 26th May 2019 - 11:00:40