Welcome Guest ( Log In | Register )

> Releases Upload / Добавление релизов

Добавить релиз тут / Click here to add release
Рекомендованные обменники / Recommended file shares

 
Reply to this topicStart new topic
> Walls Of Babylon - The Dark Embrace (2015), Power/Progressive Metal
post Mar 15 2019, 14:10:37
Post #1

Serial Uploader
Group Icon
Group: V.I.P
Posts: 34,371
Releases: 32603
From: Lithuania
On Forums: 10 years 9 months
Thanks: 372132 time(s)
Lithuania


(IMG:https://metalarea.org/images/audiocovers/2019_Mar/acov_tid319074_thumb.jpg)

*Artist: Walls Of Babylon
*Album: The Dark Embrace
*Year: 2015
*Genre: Power/Progressive Metal
*Country: Italy (IMG:https://metalarea.org/forum/style_images/flags/Italy.png)
*Format: mp3@CBR320kbps
*Size: 114MB

Tracklist:
01. A Puppet of Lies 05:37
02. The Defeat 04:31
03. Alone 05:47
04. The Dark Embrace 05:43
05. Honor and Sorrow 05:27
06. The Emperor 05:54
07. A New Beginning 01:57
08. Revenge of Morpheus 05:06
09. A Warm Embrace 05:23
10. Hunting High and Low (Bonus Track) 04:00
******************************
Total playing time: 49:25


(IMG:https://metalarea.org/images/youtube.png)

Technical info
(IMG:https://metalarea.org/images/spectrogram/2019_Mar/1451d644b44682febe24cf5609113ed5.png)
Input File: 2 - The Defeat.mp3
Channels : 2
Sample Rate : 44100
Precision : 16-bit
Duration : 00:04:31.38 = 11967638 samples = 20353.1 CDDA sectors
File Size : 10.9M
Bit Rate : 322k
Sample Encoding: MPEG audio (layer I, II or III)
Comments :
Title=The Defeat
Artist=Walls of Babylon
Album=The Dark Embrace
Tracknumber=2
Year=2019
Genre=Rock/Hard Rock/Metal
Discnumber=1



Register


Go to the top of the page
  Insert nick Quick quote
+Quote Post

Reply to this topicStart new topic
1 User(s) are reading this topic (1 Guests and 0 Anonymous Users)
0 Members:

 



- Lo-Fi Version Support form
Copyrights and abuse reports form
Time is now: 25th March 2019 - 07:18:48