Welcome Guest ( Log In | Register )

> Releases Upload / Добавление релизов

Добавить релиз тут / Click here to add release
Рекомендованные обменники / Recommended file shares

> Apócrifos - Apócrifos (2019), Black/Doom Metal
post Mar 15 2019, 14:14:10
Post #1

Правь статус, ####!111
**************
Group: Металариец
Posts: 16,363
Releases: 11116
From: Г.Харьков
On Forums: 6 years 10 months
Thanks: 184986 time(s)
Unknown


(IMG:https://metalarea.org/images/audiocovers/2019_Mar/acov_tid319075_thumb.jpg)

*Artist: Apócrifos
*Album: Apócrifos
*Year: 2019
*Genre: Black/Doom Metal
*Country: Brazil (IMG:https://metalarea.org/forum/style_images/flags/Brazil.png)
*Format: mp3@CBR320kbps
*Size: 86MB

Tracklist:
1. Giants and Bastards 04:58
2. Apócrifos 05:43
3. Vulgar Era 03:22
4. Singing in the Caves 04:03
5. Habemus Sol Invictus 05:12
6. Magia Enim Hominis 03:13
7. The Seed 03:51
8. My Hell 06:46
******************************
Total playing time: 37:08



Extended info
Bia Cunha Bass
Culver Yu Drums
Antonio Gonçalves Guitars
Victor Moura Vocals


Technical info
(IMG:https://metalarea.org/images/spectrogram/2019_Mar/43d63bbef37f7d100a75fa4a12e05631.png)
Input File: 02 - Apócrifos.mp3
Channels : 2
Sample Rate : 44100
Precision : 16-bit
Duration : 00:05:42.72 = 15113908 samples = 25703.9 CDDA sectors
File Size : 13.9M
Bit Rate : 323k
Sample Encoding: MPEG audio (layer I, II or III)
Comments :
Title=Apócrifos
Artist=Apócrifos
Album=Apócrifos
Tracknumber=2
Year=2019



Register


Go to the top of the page
  Insert nick Quick quote
+Quote Post
 
Start new topic
Replies (1 - 5)
post Mar 15 2019, 18:02:17
Post #2

Правь статус, ####!111
**************
Group: Металариец
Posts: 16,363
Releases: 11116
From: Г.Харьков
On Forums: 6 years 10 months
Thanks: 184986 time(s)
Unknown


Cloud Mail 320
Register


Thanks:
Go to the top of the page
  Insert nick Quick quote
+Quote Post
post Mar 15 2019, 20:06:00
Post #3

Литр
*
Group: Подсевший
Posts: 67
Releases: 0
On Forums: 1 year 10 months
Thanks: 37 time(s)
Zimbabwe


ЦИТАТА(Samaritianin @ Mar 15 2019, 17:14:10) *
*Genre: Black/Doom Metal

Go to the top of the page
  Insert nick Quick quote
+Quote Post
post Mar 17 2019, 15:15:27
Post #4

Пять Литров
*****
Group: Металариец
Posts: 470
Releases: 0
From: South Of Heaven
On Forums: 11 years 7 months
Thanks: 179 time(s)
Ukraine


Неплохо, слухаем дальше... (IMG:style_emoticons/default/metaler.gif)
Релизёру вери сенкс! (IMG:style_emoticons/default/9.gif) (IMG:style_emoticons/default/9.gif)


Thanks:
Go to the top of the page
  Insert nick Quick quote
+Quote Post
post Mar 18 2019, 06:24:29
Post #5

кручу наждак
**************
Group: Металариец
Posts: 3,755
Releases: 95
From: Самара
On Forums: 8 years 10 months
Thanks: 2809 time(s)
Russian Federation


Ого, если в одном только превьюшном клипе намешана куча стилей - дум, готика, блэк, дарк в духе Bethzaida - то что тогда в остальных семи треках.
Предвкушаю годноту!
Go to the top of the page
  Insert nick Quick quote
+Quote Post
post Mar 18 2019, 07:09:48
Post #6

кручу наждак
**************
Group: Металариец
Posts: 3,755
Releases: 95
From: Самара
On Forums: 8 years 10 months
Thanks: 2809 time(s)
Russian Federation


Послушал. Альбом хороший, но на 99% чисто думовый. Наличие скрима в паре песен еще не повод писать блэк в тегах.
Превьюшный трек так и остался стоять особняком.
Go to the top of the page
  Insert nick Quick quote
+Quote Post

Reply to this topicStart new topic
2 User(s) are reading this topic (2 Guests and 0 Anonymous Users)
0 Members:

 



- Lo-Fi Version Support form
Copyrights and abuse reports form
Time is now: 25th March 2019 - 22:50:00