Welcome Guest ( Log In | Register )

> Releases Upload / Добавление релизов

Добавить релиз тут / Click here to add release
Рекомендованные обменники / Recommended file shares

> Al Goregrind - The Temple Is Burning (2019), Brutal Death Metal/Goregrind (D9)
post Mar 15 2019, 14:20:13
Post #1

Serial Uploader
Group Icon
Group: V.I.P
Posts: 34,371
Releases: 32603
From: Lithuania
On Forums: 10 years 9 months
Thanks: 372132 time(s)
Lithuania


(IMG:https://metalarea.org/images/audiocovers/2019_Mar/acov_tid319077_thumb.jpg)

*Artist: Al Goregrind
*Album: The Temple Is Burning
*Year: 2019
*Genre: Brutal Death Metal/Goregrind
*Country: Italy (IMG:https://metalarea.org/forum/style_images/flags/Italy.png)
*Format: mp3@CBR320kbps
*Size: 114MB

Tracklist:
01. Rebel Radio Hoth 03:45
02. Burnham Chose Well 03:49
03. The Temple Is Burning 05:34
04. Star Forge 04:35
05. Wraith Squadron 02:45
06. All Hail to Vader 03:29
07. Rancor Rampage 06:35
08. I'll Be at the Angry Dome 03:27
09. The Force Is My Will 03:11
10. The Rule of Two 05:01
11. Darth Nihilius 05:15
12. Great Pit of Carkoon 03:04
******************************
Total playing time: 50:30



(IMG:https://metalarea.org/images/youtube.png)

Technical info
(IMG:https://metalarea.org/images/spectrogram/2019_Mar/7d29ec26cd3ee67fcd9e3fe8489ab334.png)
Input File: 02 - Burnham Chose Well.mp3
Channels : 2
Sample Rate : 44100
Precision : 16-bit
Duration : 00:03:49.16 = 10106044 samples = 17187.1 CDDA sectors
File Size : 9.17M
Bit Rate : 320k
Sample Encoding: MPEG audio (layer I, II or III)
Comments :
Title=Burnham Chose Well
Artist=Al Goregrind
Album=The Temple Is Burning
Tracknumber=2
Year=2019
Genre=Death Metal



Register


Go to the top of the page
  Insert nick Quick quote
+Quote Post
 
Start new topic
Replies (1 - 2)
post Mar 16 2019, 09:48:45
Post #2

Правь статус, ####!111
**************
Group: Металариец
Posts: 3,336
Releases: 0
From: Одесса
On Forums: 11 years 3 weeks
Thanks: 1495 time(s)
Unknown


looks like nothing consistent...
Go to the top of the page
  Insert nick Quick quote
+Quote Post
post Mar 17 2019, 12:18:35
Post #3

кручу наждак
**************
Group: Металариец
Posts: 3,753
Releases: 95
From: Самара
On Forums: 8 years 10 months
Thanks: 2808 time(s)
Russian Federation


Нормально жарят, даже с авангардными фишками типа чистого вокала.
Go to the top of the page
  Insert nick Quick quote
+Quote Post

Reply to this topicStart new topic
1 User(s) are reading this topic (1 Guests and 0 Anonymous Users)
0 Members:

 



- Lo-Fi Version Support form
Copyrights and abuse reports form
Time is now: 25th March 2019 - 06:47:54