Welcome Guest ( Log In | Register )

> Releases Upload / Добавление релизов

Добавить релиз тут / Click here to add release
Рекомендованные обменники / Recommended file shares

> Cút Lộn - Xào Ke (2019), Thrash Metal/Crossover/Punk
post Mar 15 2019, 14:27:35
Post #1

Правь статус, ####!111
**************
Group: Металариец
Posts: 16,363
Releases: 11116
From: Г.Харьков
On Forums: 6 years 10 months
Thanks: 184986 time(s)
Unknown


(IMG:https://metalarea.org/images/audiocovers/2019_Mar/acov_tid319079_thumb.jpg)

*Artist: Cút Lộn
*Album: Xào Ke
*Year: 2019
*Genre: Thrash Metal/Crossover/Punk
*Country: Vietnam (IMG:https://metalarea.org/forum/style_images/flags/Vietnam.png)
*Format: mp3@CBR320kbps
*Size: 53MB

Tracklist:
1. Em đi xe hơi 01:33
2. Cô hàng xóm 02:20
3. Tám điều gấu dặn 02:04
4. Em ăn gì 02:13
5. Khu em sống 02:12
6. Em đi học 02:53
7. Nũ nợn 01:32
8. Em cắt trym 02:12
9. Em đi đổ rác 02:04
10. Em bị oánh 03:42
******************************
Total playing time: 22:45



Extended info
Mạnh Quân Bass
Sergey Bochenkov Drums
Quang sọt Guitars, backing vocals
Hải Đăng Vocals


Technical info
(IMG:https://metalarea.org/images/spectrogram/2019_Mar/442e4a17b8ea26239dc2684c8a9db216.png)
Input File: 02 - Cô Hàng Xóm.mp3
Channels : 2
Sample Rate : 44100
Precision : 16-bit
Duration : 00:02:20.49 = 6195785 samples = 10537 CDDA sectors
File Size : 5.70M
Bit Rate : 324k
Sample Encoding: MPEG audio (layer I, II or III)
Comments :
Title=Cô Hàng Xóm
Artist=Cút Lộn
Album=Xào Ke
Tracknumber=2
Year=2019



Register


Go to the top of the page
  Insert nick Quick quote
+Quote Post
 
Start new topic
Replies (1 - 2)
post Mar 15 2019, 18:04:39
Post #2

Правь статус, ####!111
**************
Group: Металариец
Posts: 16,363
Releases: 11116
From: Г.Харьков
On Forums: 6 years 10 months
Thanks: 184986 time(s)
Unknown


Cloud Mail 320
Register


Thanks:
(1) pichileon,
Go to the top of the page
  Insert nick Quick quote
+Quote Post
post Mar 15 2019, 19:41:00
Post #3

Group: Подсевший
Posts: 31
Releases: 0
On Forums: 5 years 5 months
Thanks: 13 time(s)
Russian Federation


Желтолицые вьетнамцы верещат в кустах как зайцы... Нормально так верещат, бодро.
Go to the top of the page
  Insert nick Quick quote
+Quote Post

Reply to this topicStart new topic
2 User(s) are reading this topic (2 Guests and 0 Anonymous Users)
0 Members:

 



- Lo-Fi Version Support form
Copyrights and abuse reports form
Time is now: 25th March 2019 - 22:51:37