Welcome Guest ( Log In | Register )

 
Reply to this topicStart new topic
> Disarray - Widespread Human Disaster [demo] (1995), Thrash/Southern Metal (D)
post Mar 15 2019, 14:28:05
Post #1

Подвал
**************
Group: Металариец
Posts: 13,435
Releases: 7610
From: Far East (Khabarovsk)
On Forums: 10 years 3 months
Thanks: 72586 time(s)
Russian Federation


(IMG:http://metalarea.org/images/audiocovers/2019_Mar/acov_tid319080_thumb.jpg)

*Artist: Disarray
*Album: Widespread Human Disaster [demo]
*Year: 1995
*Genre: Thrash/Southern Metal
*Country: United States (IMG:http://metalarea.org/forum/style_images/flags/United%20States.png)
*Format: mp3@CBR320kbps
*Size: 46MB

Tracklist:
1. Holocaust 03:39
2. Death Plague Jesus 03:18
3. Scarred For Life 05:09
4. Powered By Hate 03:17
5. Agony 05:05
******************************
Total playing time: 20:28


(IMG:http://metalarea.org/images/myspace.png)

Extended info
Recorded and mixed at Edge Of Franklin Studio, Franklin TN.
Co-produced by Disarray.
Mastered at Masterfonics in Nashville, TN.


Technical info
(IMG:http://metalarea.org/images/spectrogram/2019_Mar/b11aef354835a38d13bc18c9f0e10c1e.png)
Input File: 01-Holocaust.mp3
Channels : 2
Sample Rate : 44100
Precision : 16-bit
Duration : 00:03:39.22 = 9667514 samples = 16441.4 CDDA sectors
File Size : 8.77M
Bit Rate : 320k
Sample Encoding: MPEG audio (layer I, II or III)
Comments :
Title=Holocaust
Artist=Disarray
Album=Widespread Human Disaster (Demo)
Tracknumber=01
Year=1995
Genre=Metal



Register


Go to the top of the page
  Insert nick Quick quote
+Quote Post

Reply to this topicStart new topic
1 User(s) are reading this topic (1 Guests and 0 Anonymous Users)
0 Members:

 



- Lo-Fi Version Support form
Copyrights and abuse reports form
Time is now: 25th May 2019 - 00:59:43