Welcome Guest ( Log In | Register )

> Releases Upload / Добавление релизов

Добавить релиз тут / Click here to add release
Рекомендованные обменники / Recommended file shares

> Grandfather Nebulous - Explore, Explain, Implore The Pain. (2019), Atmospheric Black Metal/Ambient
post Mar 15 2019, 14:39:58
Post #1

Serial Uploader
Group Icon
Group: V.I.P
Posts: 34,371
Releases: 32603
From: Lithuania
On Forums: 10 years 9 months
Thanks: 372132 time(s)
Lithuania


(IMG:https://metalarea.org/images/audiocovers/2019_Mar/acov_tid319082_thumb.jpg)

*Artist: Grandfather Nebulous
*Album: Explore, Explain, Implore The Pain.
*Year: 2019
*Genre: Atmospheric Black Metal/Ambient
*Country: United Kingdom (IMG:https://metalarea.org/forum/style_images/flags/United%20Kingdom.png)
*Format: mp3@CBR320kbps
*Size: 114MB

Tracklist:
01. Realization I 03:28
02. Breaking Ineptitude 07:37
03. Incongruous Preponderance 04:40
04. In The End Gravity Always Wins 09:21
05. Seeping Into Bones 06:43
06. Rotten Black Wings 09:30
07. Flying The Fucking Flag 07:06
******************************
Total playing time: 48:25



Technical info
(IMG:https://metalarea.org/images/spectrogram/2019_Mar/d0feb87fdac6d729205f96311c4d3c57.png)
Input File: 02. Breaking Ineptitude.mp3
Channels : 2
Sample Rate : 44100
Precision : 16-bit
Duration : 00:07:37.59 = 20179675 samples = 34319.2 CDDA sectors
File Size : 18.7M
Bit Rate : 327k
Sample Encoding: MPEG audio (layer I, II or III)
Comments :
Title=Breaking Ineptitude
Artist=Grandfather Nebulous
Album=Explore, Explain, Implore The Pain.
Tracknumber=2/7
Year=2019



Register


Go to the top of the page
  Insert nick Quick quote
+Quote Post
 
Start new topic
Replies (1 - 1)
post Mar 16 2019, 07:01:05
Post #2

Литр
*
Group: Подсевший
Posts: 72
Releases: 0
On Forums: 1 year 3 months
Thanks: 5 time(s)
Unknown


Go to the top of the page
  Insert nick Quick quote
+Quote Post

Reply to this topicStart new topic
1 User(s) are reading this topic (1 Guests and 0 Anonymous Users)
0 Members:

 



- Lo-Fi Version Support form
Copyrights and abuse reports form
Time is now: 25th March 2019 - 06:19:39