Welcome Guest ( Log In | Register )

> Days Like This - The Monster They'd See (2019), Groove Metal
post Mar 15 2019, 14:54:09
Post #1

Serial Uploader
Group Icon
Group: V.I.P
Posts: 35,206
Releases: 33421
From: Lithuania
On Forums: 10 years 11 months
Thanks: 383037 time(s)
Lithuania


(IMG:https://metalarea.org/images/audiocovers/2019_Mar/acov_tid319083_thumb.jpg)

*Artist: Days Like This
*Album: The Monster They'd See
*Year: 2019
*Genre: Groove Metal
*Country: United States (IMG:https://metalarea.org/forum/style_images/flags/United%20States.png)
*Format: mp3@CBR320kbps
*Size: 106MB

Tracklist:
01. Sacrifice 02:59
02. Treatment 03:50
03. The Monster They'd See 04:33
04. Relentless 04:31
05. Always 05:50
06. No More No Less 04:52
07. Burn 03:59
08. Nameless 04:02
09. Malicious Intent 03:45
10. Peacemaker 03:58
11. The Harmony 04:13
******************************
Total playing time: 46:32



Technical info
(IMG:https://metalarea.org/images/spectrogram/2019_Mar/3c259e5aaf24abfb13b8e9c74158ab05.png)
Input File: 02 - Treatment.mp3
Channels : 2
Sample Rate : 44100
Precision : 16-bit
Duration : 00:03:50.36 = 10159008 samples = 17277.2 CDDA sectors
File Size : 9.22M
Bit Rate : 320k
Sample Encoding: MPEG audio (layer I, II or III)
Comments :
Title=Treatment
Artist=Days Like This
Album=The Monster They'd See
Tracknumber=2
Year=2019
Genre=Metal
Discnumber=1



Register


Go to the top of the page
  Insert nick Quick quote
+Quote Post
 
Start new topic
Replies (1 - 1)
post Mar 15 2019, 22:35:28
Post #2

Правь статус, ####!111
**************
Group: Металариец
Posts: 2,212
Releases: 0
On Forums: 4 years 2 weeks
Thanks: 2270 time(s)
Russian Federation


https://music.yandex.ru/album/7006704
Go to the top of the page
  Insert nick Quick quote
+Quote Post

Reply to this topicStart new topic
1 User(s) are reading this topic (1 Guests and 0 Anonymous Users)
0 Members:

 



- Lo-Fi Version Support form
Copyrights and abuse reports form
Time is now: 25th May 2019 - 00:26:37