Welcome Guest ( Log In | Register )

> Releases Upload / Добавление релизов

Добавить релиз тут / Click here to add release
Рекомендованные обменники / Recommended file shares

> Warpit - Reborn [ep] (2019), Death/Thrash Metal
post Mar 15 2019, 14:57:15
Post #1

Правь статус, ####!111
**************
Group: Металариец
Posts: 16,363
Releases: 11116
From: Г.Харьков
On Forums: 6 years 10 months
Thanks: 184986 time(s)
Unknown


(IMG:https://metalarea.org/images/audiocovers/2019_Mar/acov_tid319084_thumb.jpg)

*Artist: Warpit
*Album: Reborn [ep]
*Year: 2019
*Genre: Death/Thrash Metal
*Country: Canada (IMG:https://metalarea.org/forum/style_images/flags/Canada.png)
*Format: mp3@CBR320kbps
*Size: 46MB

Tracklist:
1. Bleeding for Truth 03:17
2. Day of Reckoning 05:00
3. Reborn 02:50
4. Deception 04:32
5. Black Death 04:22
******************************
Total playing time: 20:01



Extended info
Guitar/Vocals - Fred/
Guitar - Rod/
Bass - Marc/
Drums - Sam/


Technical info
(IMG:https://metalarea.org/images/spectrogram/2019_Mar/d8dc98f347e5b743ed21225b5dda99b9.png)
Input File: 2 - Day of Reckoning.mp3
Channels : 2
Sample Rate : 44100
Precision : 16-bit
Duration : 00:05:00.69 = 13260253 samples = 22551.5 CDDA sectors
File Size : 12.2M
Bit Rate : 323k
Sample Encoding: MPEG audio (layer I, II or III)
Comments :
Title=Day of Reckoning
Artist=Warpit
Album=Reborn
Tracknumber=2
Year=2019
Genre=Metal
Discnumber=1



Register


Go to the top of the page
  Insert nick Quick quote
+Quote Post
 
Start new topic
Replies (1 - 1)
post Mar 17 2019, 16:47:39
Post #2

MDM-Thrash Metal
**************
Group: Металариец
Posts: 7,719
Releases: 432
From: Одесса
On Forums: 11 years 7 months
Thanks: 14430 time(s)
Ukraine


Очень приятный материал. Хороший и добротный мелодез, без грувятины, модернизма, кора и прочей х (IMG:style_emoticons/default/25.gif) йни. Без претензии на статус шедевральности, но сабж выполнен на высоком уровне!
Go to the top of the page
  Insert nick Quick quote
+Quote Post

Reply to this topicStart new topic
1 User(s) are reading this topic (1 Guests and 0 Anonymous Users)
0 Members:

 



- Lo-Fi Version Support form
Copyrights and abuse reports form
Time is now: 25th March 2019 - 22:50:57