Welcome Guest ( Log In | Register )

> Releases Upload / Добавление релизов

Добавить релиз тут / Click here to add release
Рекомендованные обменники / Recommended file shares

> Murder King - Fiyasko (2019), Modern Melodic Death Metal
post Mar 15 2019, 15:07:55
Post #1

Serial Uploader
Group Icon
Group: V.I.P
Posts: 34,371
Releases: 32603
From: Lithuania
On Forums: 10 years 9 months
Thanks: 372132 time(s)
Lithuania


(IMG:https://metalarea.org/images/audiocovers/2019_Mar/acov_tid319086_thumb.jpg)

*Artist: Murder King
*Album: Fiyasko
*Year: 2019
*Genre: Modern Melodic Death Metal
*Country: Turkey (IMG:https://metalarea.org/forum/style_images/flags/Turkey.png)
*Format: mp3@CBR320kbps
*Size: 93MB

Tracklist:
01. Alert 03:07
02. İnsanlar 04:01
03. Fiasco 03:22
04. Ben Her Gün Artık Sen 04:32
05. Drama of Me 03:43
06. Bizler Özgürüz 03:51
07. Let Them Know 04:27
08. Facia 03:33
09. Cause of My Death 03:48
10. Wake Up 03:50
******************************
Total playing time: 38:14



Technical info
(IMG:https://metalarea.org/images/spectrogram/2019_Mar/9d0a77cb3c42bdf3036d8fdc4fef8b1a.png)
Input File: 02 - İnsanlar.mp3
Channels : 2
Sample Rate : 44100
Precision : 16-bit
Duration : 00:04:01.49 = 10649797 samples = 18111.9 CDDA sectors
File Size : 10.0M
Bit Rate : 332k
Sample Encoding: MPEG audio (layer I, II or III)
Comments :
Title=İnsanlar
Artist=Murder King
Album=Fiyasko
Tracknumber=2
Year=2019
Genre=Metal
Discnumber=1



Register


Go to the top of the page
  Insert nick Quick quote
+Quote Post
 
Start new topic
Replies (1 - 3)
post Mar 15 2019, 21:21:47
Post #2

Тридцать лет на борту "Тяжёлого" крейсера
***********
Group: Металариец
Posts: 1,982
Releases: 0
From: Питер
On Forums: 11 years 9 months
Thanks: 487 time(s)
Russian Federation


Я здесь услышал больше modern groove, MDM эпизодически встречается
В целом неплохая работа, под настроение можно прогнать
И язык воспринимается как нечто экзотическое
А последний трек так вообще готота модерновая, напомнил Beseech среднего периода
Не, нормальный альбом
Go to the top of the page
  Insert nick Quick quote
+Quote Post
post Mar 16 2019, 20:42:15
Post #3

MDM-Thrash Metal
**************
Group: Металариец
Posts: 7,716
Releases: 432
From: Одесса
On Forums: 11 years 7 months
Thanks: 14426 time(s)
Ukraine


https://www.youtube.com/watch?v=AwmOqYiu3ok Murder King - Bizler Özgürüz (Official Audio)
https://www.youtube.com/watch?v=xeFr1Jq5KCQ Murder King - Wake Up (Official Audio)



ЦИТАТА(sadmannn @ Mar 16 2019, 00:21:47) *
Не, нормальный альбом

(IMG:style_emoticons/default/21.gif) Мелодеза здесь нет. Да и сам сабж...ну, такое.


Thanks:
(1) DenisKov,
Go to the top of the page
  Insert nick Quick quote
+Quote Post
post Mar 17 2019, 11:35:11
Post #4

Ъ
**************
Group: Металариец
Posts: 9,458
Releases: 9
On Forums: 10 years 2 months
Thanks: 1815 time(s)
Sweden


Пригрувленный Крематори турецкого разлива, спасибо не надо.
Go to the top of the page
  Insert nick Quick quote
+Quote Post

Reply to this topicStart new topic
2 User(s) are reading this topic (2 Guests and 0 Anonymous Users)
0 Members:

 



- Lo-Fi Version Support form
Copyrights and abuse reports form
Time is now: 25th March 2019 - 06:59:18