Welcome Guest ( Log In | Register )

 
Reply to this topicStart new topic
> Waster - Waster (2019), Heavy/Groove Metal
post Mar 15 2019, 15:17:57
Post #1

Serial Uploader
Group Icon
Group: V.I.P
Posts: 35,215
Releases: 33430
From: Lithuania
On Forums: 10 years 11 months
Thanks: 383311 time(s)
Lithuania


(IMG:https://metalarea.org/images/audiocovers/2019_Mar/acov_tid319087_thumb.png)

*Artist: Waster
*Album: Waster
*Year: 2019
*Genre: Heavy/Groove Metal
*Country: Canada (IMG:https://metalarea.org/forum/style_images/flags/Canada.png)
*Format: mp3@CBR320kbps
*Size: 92MB

Tracklist:
01. The Scythe
02. Agony
03. Impostor Syndrome
04. Bones Exposed
05. Sapiens
06. Age of Ordning
07. Fury & Thunder
08. Rumination
09. Soul Separation
10. Chemistry of Breathing
******************************
Total playing time: 39:55

(IMG:https://metalarea.org/images/myspace.png)



Technical info
(IMG:https://metalarea.org/images/spectrogram/2019_Mar/3e4523bb8ed3edb86489ba82b07a8fef.png)
Input File: 02 - Agony.mp3
Channels : 2
Sample Rate : 44100
Precision : 16-bit
Duration : 00:03:50.65 = 10171709 samples = 17298.8 CDDA sectors
File Size : 10.2M
Bit Rate : 353k
Sample Encoding: MPEG audio (layer I, II or III)
Comments :
Title=Agony
Artist=Waster
Album=Waster
Tracknumber=2
Year=2019
Genre=Heavy Metal
Discnumber=1



Register


Go to the top of the page
  Insert nick Quick quote
+Quote Post

Reply to this topicStart new topic
1 User(s) are reading this topic (1 Guests and 0 Anonymous Users)
0 Members:

 



- Lo-Fi Version Support form
Copyrights and abuse reports form
Time is now: 26th May 2019 - 10:53:33