Welcome Guest ( Log In | Register )

> Releases Upload / Добавление релизов

Добавить релиз тут / Click here to add release
Рекомендованные обменники / Recommended file shares

> Odyssey - Egofussion (2019), Progressive Metal (D9)
post Mar 15 2019, 15:32:06
Post #1

Serial Uploader
Group Icon
Group: V.I.P
Posts: 34,371
Releases: 32603
From: Lithuania
On Forums: 10 years 9 months
Thanks: 372132 time(s)
Lithuania


(IMG:https://metalarea.org/images/audiocovers/2019_Mar/acov_tid319088_thumb.jpg)

*Artist: Odyssey
*Album: Egofussion
*Year: 2019
*Genre: Progressive Metal
*Country: Spain (IMG:https://metalarea.org/forum/style_images/flags/Spain.png)
*Format: mp3@CBR320kbps
*Size: 177MB

Tracklist:
01. Nothing Child 08:35
02. Sign of the Lost 05:52
03. Deathstrike 11:14
04. Entropia 07:59
05. Edge of the World 08:45
06. Stormfall 05:02
07. Revelations 07:43
08. Hell Fussion Collapse 22:11
******************************
Total playing time: 1:17:21

(IMG:https://metalarea.org/images/myspace.png)


(IMG:https://metalarea.org/images/youtube.png)

Technical info
(IMG:https://metalarea.org/images/spectrogram/2019_Mar/2e6d94496d5159aa5ecd111fc32180e2.png)
Input File: 02. Sign of the Lost.mp3
Channels : 2
Sample Rate : 44100
Precision : 16-bit
Duration : 00:05:52.07 = 15526463 samples = 26405.5 CDDA sectors
File Size : 14.1M
Bit Rate : 321k
Sample Encoding: MPEG audio (layer I, II or III)
Comments :
Title=Sign of the Lost
Artist=Odyssey
Album=Egofussion
Tracknumber=2
Year=2019
Discnumber=1



Register


Go to the top of the page
  Insert nick Quick quote
+Quote Post
 
Start new topic
Replies (1 - 5)
post Mar 15 2019, 17:47:55
Post #2

21st Century Schizoid Man
**************
Group: Металариец
Posts: 5,692
Releases: 68
From: Moscow
On Forums: 10 years 10 months
Thanks: 4381 time(s)
Russian Federation


Нельзя прог-коллективам брать такое название. Все знают, кто выпускал под ним широкоизвестный в узких кругах альбом. Прям такой облом сразу, когда видишь, что ЭТО НЕ ТО!
Прогнал больше половины альбома. Заходы от прога до чуть ли не джаза. Нешаблонно, но пока не зацепило.


Thanks:
Go to the top of the page
  Insert nick Quick quote
+Quote Post
post Mar 16 2019, 16:38:23
Post #3

Четыре Литра
****
Group: Металариец
Posts: 319
Releases: 0
From: Сибирь
On Forums: 8 years 2 weeks
Thanks: 92 time(s)
Russian Federation


Yarri,
Только этот коллектив в конце 80-х образовался metal-archives
На бэндкампе ранние альбомы за name your price


Thanks:
(1) Yarri,
Go to the top of the page
  Insert nick Quick quote
+Quote Post
post Mar 16 2019, 18:00:13
Post #4

член общества защитников попсы
******
Group: Металариец
Posts: 537
Releases: 1
From: Полтава
On Forums: 8 years 6 months
Thanks: 270 time(s)
Ukraine


ЦИТАТА(Yarri @ Mar 15 2019, 18:47:55) *
Все знают, кто выпускал под ним широкоизвестный в узких кругах альбом

И кто же?
Go to the top of the page
  Insert nick Quick quote
+Quote Post
post Mar 16 2019, 19:58:31
Post #5

21st Century Schizoid Man
**************
Group: Металариец
Posts: 5,692
Releases: 68
From: Moscow
On Forums: 10 years 10 months
Thanks: 4381 time(s)
Russian Federation


ЦИТАТА(Ogidni @ Mar 16 2019, 18:38:23) *
Yarri,
Только этот коллектив в конце 80-х образовался metal-archives
На бэндкампе ранние альбомы за name your price

Спасибо! Не знал. (IMG:style_emoticons/default/bye.gif)
Go to the top of the page
  Insert nick Quick quote
+Quote Post
post Mar 16 2019, 20:39:30
Post #6

Prisoner Of Our Time
**************
Group: Металариец
Posts: 4,635
Releases: 41
From: Луганск, 13 регион, экс-"404"
On Forums: 13 years 4 months
Thanks: 1313 time(s)
Papua New Guinea


я тоже по-началу подумал на известного шведского товарища (IMG:style_emoticons/default/smile2.gif)
Go to the top of the page
  Insert nick Quick quote
+Quote Post

Reply to this topicStart new topic
2 User(s) are reading this topic (2 Guests and 0 Anonymous Users)
0 Members:

 



- Lo-Fi Version Support form
Copyrights and abuse reports form
Time is now: 25th March 2019 - 07:08:51