Welcome Guest ( Log In | Register )

> Releases Upload / Добавление релизов

Добавить релиз тут / Click here to add release
Рекомендованные обменники / Recommended file shares

> Tempestilence - Renaissance In Putrescence (2018), Death Metal
post Mar 15 2019, 15:33:07
Post #1

Правь статус, ####!111
**************
Group: Металариец
Posts: 16,355
Releases: 11115
From: Г.Харьков
On Forums: 6 years 10 months
Thanks: 184941 time(s)
Unknown


(IMG:https://metalarea.org/images/audiocovers/2019_Mar/acov_tid319089_thumb.jpg)

*Artist: Tempestilence
*Album: Renaissance In Putrescence
*Year: 2018
*Genre: Death Metal
*Country: Brazil (IMG:https://metalarea.org/forum/style_images/flags/Brazil.png)
*Format: mp3@CBR320kbps
*Size: 60MB

Tracklist:
1. Intro
2. Dead Impaled Savior
3. Spiritual Rape
4. Morbid Suffocation
5. Maligna
6. Grinding Hearts
7. Renaissance In Putrescence
8. Ice Land
******************************
Total playing time: 25:35



Extended info
Fabio Lima Vocals, Guitars
See also: Mortage
Francisco Souza Bass (2015-present)
Cleirton Ceará Drums (2015-present)


Technical info
(IMG:https://metalarea.org/images/spectrogram/2019_Mar/c654a0dd6fd9d0a7f56ccf8f514d859e.png)
Input File: 03 - Spiritual Rape.mp3
Channels : 2
Sample Rate : 44100
Precision : 16-bit
Duration : 00:04:47.21 = 12665785 samples = 21540.5 CDDA sectors
File Size : 11.6M
Bit Rate : 324k
Sample Encoding: MPEG audio (layer I, II or III)
Comments :
Title=Spiritual Rape
Artist=Tempestilence
Album=Renaissance in Putrescence
Tracknumber=3
Year=2018



Register


Go to the top of the page
  Insert nick Quick quote
+Quote Post
 
Start new topic
Replies (1 - 1)
post Mar 15 2019, 18:07:17
Post #2

Правь статус, ####!111
**************
Group: Металариец
Posts: 16,355
Releases: 11115
From: Г.Харьков
On Forums: 6 years 10 months
Thanks: 184941 time(s)
Unknown


Cloud Mail 320
Register


Thanks:
Go to the top of the page
  Insert nick Quick quote
+Quote Post

Reply to this topicStart new topic
2 User(s) are reading this topic (2 Guests and 0 Anonymous Users)
0 Members:

 



- Lo-Fi Version Support form
Copyrights and abuse reports form
Time is now: 25th March 2019 - 06:30:05