Welcome Guest ( Log In | Register )

> Iron Maiden - Eddie's Archive [compilation] (2002), Nwobhm (D)
post Mar 15 2019, 15:42:35
Post #1

Маньяк
**********
Group: Металариец
Posts: 1,138
Releases: 76
On Forums: 5 years 7 months
Thanks: 2019 time(s)
Unknown


(IMG:http://metalarea.org/images/audiocovers/2019_Mar/acov_tid319090_thumb.jpg)

*Artist: Iron Maiden
*Album: Eddie's Archive [compilation]
*Year: 2002
*Genre: Nwobhm
*Country: United Kingdom (IMG:http://metalarea.org/forum/style_images/flags/United%20Kingdom.png)
*Format: mp3@CBR320kbps
*Size: 710MB

Tracklist:
CD1 BBC Archives

01. Iron Maiden 3:45
02. Running Free 3:10
03. Transylvania 4:02
04. Sanctuary 3:44
05. Wrathchild 3:31
06. Run To The Hills 5:35
07. Children Of The Damned 4:48
08. The Number Of The Beast 5:28
09. 22 Acacia Avenue 6:36
10. Transylvania 6:19
11. The Prisoner 5:49
12. Hallowed Be Thy Name 7:36
13. Phantom Of The Opera 7:01
14. Iron Maiden 4:57

CD2 BBC Archives

01. Prowler 4:26
02. Remember Tomorrow 5:59
03. Killers 4:43
04. Running Free 3:52
05. Transylvania 4:48
06. Iron Maiden 4:56
07. Moonchild 5:43
08. Wrathchild 3:00
09. Infinite Dreams 5:51
10. The Trooper 4:04
11. Seventh Son Of A Seventh Son 10:26
12. The Number Of The Beast 4:42
13. Hallowed Be Thy Name 7:09
14. Iron Maiden 6:01

CD3 Beast Over Hammersmith

01. Murders In The Rue Morgue 4:32
02. Wrathchild 3:30
03. Run To The Hills 4:19
04. Children Of The Damned 4:38
05. The Number Of The Beast 5:07
06. Another Life 3:44
07. Killers 5:46
08. 22 Acacia Avenue 6:55
09. Total Eclipse 4:14

CD4 Beast Over Hammersmith

01. Transylvania 5:50
02. The Prisoner 5:48
03. Hallowed Be Thy Name 7:30
04. Phantom Of The Opera 6:53
05. Iron Maiden 4:20
06. Sanctuary 4:12
07. Drifter 9:18
08. Running Free 3:44
09. Prowler 5:00

CD5 Best Of The B’Sides CD1

01. Burning Ambition 2:42
02. Drifter (Live in 1980) 6:03
03. Invasion 2:39
04. Remember Tomorrow 5:28
05. I've Got The Fire (Montrose cover) 2:39
06. Cross-Eyed Mary (Jethro Tull cover) 3:56
07. Rainbow's Gold (Beckett cover) 4:59
08. King Of Twilight (Nektar cover) 4:53
09. Reach Out 3:33
10. That Girl (FM cover) 5:05
11. Juanita (Marshall Fury cover) 3:47
12. The Sheriff Of Huddersfield 3:35
13. Black Bart Blues 6:41
14. Prowler '88 4:09
15. Charlotte The Harlot '88 4:13

CD6 Best Of The B’Sides CD2

01. All In Your Mind (Stray cover) 4:31
02. Kill Me Ce Soir (Golden Earring cover) 6:17
03. I'm A Mover (Free cover) 3:29
04. Communication Breakdown (Led Zeppelin cover) 2:42
05. Nodding Donkey Blues 3:17
06. Space Station No. 5 (Montrose cover) 3:47
07. I Can't See My Feelings (Budgie cover) 3:50
08. Roll Over Vic Vella (cover of "Roll Over Beethoven" with different lyrics) 4:48
09. Justice Of The Peace 3:33
10. Judgement Day 4:04
11. My Generation (The Who cover) 3:37
12. Doctor Doctor (UFO cover) 4:50
13. Blood On The Worlds Hands (Live in 1995) 6:07
14. The Aftermath (Live in 1995) 6:45
15. Futureal (Live in 1999) 3:01
16. Wasted Years 5:00
******************************
Total playing time: 6:17:21



Technical info
(IMG:http://metalarea.org/images/spectrogram/2019_Mar/575ca02b78be7fe99d155f982cf2d6ce.png)
Input File: 07 Children of the Damned.mp3
Channels : 2
Sample Rate : 44100
Precision : 16-bit
Duration : 00:04:48.49 = 12722365 samples = 21636.7 CDDA sectors
File Size : 11.6M
Bit Rate : 322k
Sample Encoding: MPEG audio (layer I, II or III)
Comments :
Title=Children of the Damned
Artist=IRON MAIDEN
Album=BBC Archives (CK 86928 CD1)
Tracknumber=7/14
Year=2002
Genre=137



Register


Go to the top of the page
  Insert nick Quick quote
+Quote Post
 
Start new topic
Replies (1 - 6)
post Mar 15 2019, 19:48:23
Post #2

Два кусочека кавбаски
***
Group: Завсегдатай
Posts: 249
Releases: 29
From: Колыбель металла
On Forums: 11 years 6 months
Thanks: 392 time(s)
Russian Federation


харвестер оф мани.


Thanks:
Go to the top of the page
  Insert nick Quick quote
+Quote Post
post Mar 15 2019, 21:38:43
Post #3

Пять Литров
*****
Group: Металариец
Posts: 484
Releases: 0
From: South Of Heaven
On Forums: 11 years 9 months
Thanks: 183 time(s)
Ukraine


CD6 Best Of The B’Sides CD2 is not in the archive ! (IMG:style_emoticons/default/6.gif)
Reupload , please !!
Go to the top of the page
  Insert nick Quick quote
+Quote Post
post Mar 16 2019, 07:49:49
Post #4

Два Литра
**
Group: Завсегдатай
Posts: 167
Releases: 20
From: Saint-Petersburg, Купчино
On Forums: 13 years 6 months
Thanks: 395 time(s)
Russian Federation


Eddie's Archive - Best Of The B'Sides II - архив поврежден, перезалейте пожалуйста!
Go to the top of the page
  Insert nick Quick quote
+Quote Post
post Mar 16 2019, 07:54:31
Post #5

Пять Литров
*****
Group: Металариец
Posts: 484
Releases: 0
From: South Of Heaven
On Forums: 11 years 9 months
Thanks: 183 time(s)
Ukraine


- sorry, but the "unexpected end of the archive" (IMG:style_emoticons/default/6.gif)
(i tried different archivers...)
Go to the top of the page
  Insert nick Quick quote
+Quote Post
post Mar 16 2019, 11:29:32
Post #6

Пять Литров
*****
Group: Металариец
Posts: 484
Releases: 0
From: South Of Heaven
On Forums: 11 years 9 months
Thanks: 183 time(s)
Ukraine


ЦИТАТА(nnnmmm @ 16th March 2019 - 11:02:50) *
Try again. I reuploaded it. Downloaded it myself, seems to be OK. Sorry for the inconvenience.

that's OK thanks ! (IMG:style_emoticons/default/9.gif) (IMG:style_emoticons/default/9.gif)
Go to the top of the page
  Insert nick Quick quote
+Quote Post
post Mar 16 2019, 18:09:24
Post #7

Два Литра
**
Group: Завсегдатай
Posts: 177
Releases: 0
From: Карелия, Петрозаводск
On Forums: 12 years 10 months
Thanks: 81 time(s)
Russian Federation


Register


Thanks:
(1) Lanceatum,
Go to the top of the page
  Insert nick Quick quote
+Quote Post

Reply to this topicStart new topic
1 User(s) are reading this topic (1 Guests and 0 Anonymous Users)
0 Members:

 



- Lo-Fi Version Support form
Copyrights and abuse reports form
Time is now: 26th May 2019 - 09:57:16