Welcome Guest ( Log In | Register )

> Riffcoven - Crown Of Darkness (2018), Doom/Stoner Metal
post Mar 15 2019, 16:01:49
Post #1

Правь статус, ####!111
**************
Group: Металариец
Posts: 17,054
Releases: 11579
From: Г.Харьков
On Forums: 7 years 2 weeks
Thanks: 193380 time(s)
Unknown


(IMG:https://metalarea.org/images/audiocovers/2019_Mar/acov_tid319091_thumb.jpg)

*Artist: Riffcoven
*Album: Crown Of Darkness
*Year: 2018
*Genre: Doom/Stoner Metal
*Country: Brazil (IMG:https://metalarea.org/forum/style_images/flags/Brazil.png)
*Format: mp3@CBR320kbps
*Size: 67MB

Tracklist:
1. Crown of Darkness 03:10
2. Kali Yuga (Age of Tears) 03:45
3. Morte Hiboriana 05:32
4. Riffcoven 04:11
5. Asuras 02:45
6. Sagradas Vimanas 03:46
7. Xutal 05:36
******************************
Total playing time: 28:45




Extended info
Old One Drums (2016-present)
See also: ex-Horns of Venus, ex-Corporate Death, ex-Infamous Glory (live)
Reverendo Bode Guitars (2016-present), Vocals (2016-present)
See also: ex-Shotgun Blast, Gasoline Special, ex-Melody Monster, ex-Carnicero
Lord Phyton Bass (2018-present)
See also: ex-Cenobyte, ex-Crematorium, Awa Funk, Dissection, Illuminati, Necrocannibal, ex-Salem Orchid


Technical info
(IMG:https://metalarea.org/images/spectrogram/2019_Mar/7f7b9d426220a8ed577c10b1b47e2aa7.png)
Input File: 03 - Morte Hiboriana.mp3
Channels : 2
Sample Rate : 44100
Precision : 16-bit
Duration : 00:05:32.45 = 14661133 samples = 24933.9 CDDA sectors
File Size : 13.4M
Bit Rate : 323k
Sample Encoding: MPEG audio (layer I, II or III)
Comments :
Title=Morte Hiboriana
Artist=Riffcoven
Album=Crown of Darkness
Tracknumber=3
Year=2018



Register


Go to the top of the page
  Insert nick Quick quote
+Quote Post
 
Start new topic
Replies (1 - 1)
post Mar 15 2019, 18:08:54
Post #2

Правь статус, ####!111
**************
Group: Металариец
Posts: 17,054
Releases: 11579
From: Г.Харьков
On Forums: 7 years 2 weeks
Thanks: 193380 time(s)
Unknown


Cloud Mail 320
Register
Go to the top of the page
  Insert nick Quick quote
+Quote Post

Reply to this topicStart new topic
1 User(s) are reading this topic (1 Guests and 0 Anonymous Users)
0 Members:

 



- Lo-Fi Version Support form
Copyrights and abuse reports form
Time is now: 26th May 2019 - 10:40:29