Welcome Guest ( Log In | Register )

> Releases Upload / Добавление релизов

Добавить релиз тут / Click here to add release
Рекомендованные обменники / Recommended file shares

> Organ Blender - Temple Of Human Destruction (2018), Death Metal
post Mar 15 2019, 16:28:31
Post #1

Правь статус, ####!111
**************
Group: Металариец
Posts: 16,355
Releases: 11115
From: Г.Харьков
On Forums: 6 years 10 months
Thanks: 184941 time(s)
Unknown


(IMG:https://metalarea.org/images/audiocovers/2019_Mar/acov_tid319092_thumb.jpg)

*Artist: Organ Blender
*Album: Temple Of Human Destruction
*Year: 2018
*Genre: Death Metal
*Country: Ireland (IMG:https://metalarea.org/forum/style_images/flags/Ireland.png)
*Format: mp3@CBR320kbps
*Size: 72MB

Tracklist:
1. Enter the Blender 03:37
2. Organ Blender 04:22
3. Suction Chamber 02:44
4. Metal with a Twist 04:06
5. Car Thrash 03:38
6. Brain Garbage 04:09
7. Between the Blades 03:05
8. The Blending 05:11
******************************
Total playing time: 30:52




Extended info
Jason Kealy Bass
Jay Grimm Drums
See also: Na Cruithne
Padraig Mckeown Vocals, Guitars


Technical info
(IMG:https://metalarea.org/images/spectrogram/2019_Mar/2ab741cb748139cd2ac8f215ab6db5b3.png)
Input File: 04 - Metal With a Twist.mp3
Channels : 2
Sample Rate : 44100
Precision : 16-bit
Duration : 00:04:06.69 = 10878897 samples = 18501.5 CDDA sectors
File Size : 10.0M
Bit Rate : 325k
Sample Encoding: MPEG audio (layer I, II or III)
Comments :
Title=Metal With a Twist
Artist=Organ Blender
Album=Temple of Human Destruction
Tracknumber=4
Year=2018



Register


Go to the top of the page
  Insert nick Quick quote
+Quote Post
 
Start new topic
Replies (1 - 1)
post Mar 15 2019, 18:10:35
Post #2

Правь статус, ####!111
**************
Group: Металариец
Posts: 16,355
Releases: 11115
From: Г.Харьков
On Forums: 6 years 10 months
Thanks: 184941 time(s)
Unknown


Cloud Mail 320
Register


Thanks:
(2) KVRT, wn129aa,
Go to the top of the page
  Insert nick Quick quote
+Quote Post

Reply to this topicStart new topic
1 User(s) are reading this topic (1 Guests and 0 Anonymous Users)
0 Members:

 



- Lo-Fi Version Support form
Copyrights and abuse reports form
Time is now: 25th March 2019 - 06:20:31