Welcome Guest ( Log In | Register )

> Releases Upload / Добавление релизов

Добавить релиз тут / Click here to add release
Рекомендованные обменники / Recommended file shares

 
Reply to this topicStart new topic
> Asthma Castle - Mount Crushmore (2019), Stoner Metal
post Mar 15 2019, 16:44:43
Post #1

Мегаманьяк
***********
Group: Металариец
Posts: 1,642
Releases: 1418
From: Одесса
On Forums: 10 years 9 months
Thanks: 11426 time(s)
Ukraine


(IMG:http://metalarea.org/images/audiocovers/2019_Mar/acov_tid319094_thumb.jpg)

*Artist: Asthma Castle
*Album: Mount Crushmore
*Year: 2019
*Genre: Stoner Metal
*Country: United States (IMG:http://metalarea.org/forum/style_images/flags/United%20States.png)
*Format: mp3@CBR320kbps
*Size: 90MB

Tracklist:
1. The Incline of Western Civilization 06:23
2. Mount Crushmore 05:07
3. Here Come the Black Ship 06:26
4. Methlehem 06:49
5. Brazilian Catbox Incident 05:07
6. The Book of Duderonomy 07:34
******************************
Total playing time: 37:26



Extended info
Line - up:

Zach - Vocals
Justin E - Guitars (Ciborium, Integrity (live), ex-Aphelion, ex-Morbid Footnote, Omicron, ex-Set the Whore on Fire, ex-The Jackson Whites)
Cam - Guitars (Passage Between, ex-Last Pig in the Yard, ex-Mobula)
Adam Jarvis - Drums (Fulgora, God Enslavement, Misery Index, Pig Destroyer, Scour, ex-Criminal Element, ex-Hate Eternal (live), ex-All Will Fall)
Jeff Davis - Bass (ex-Old Crow, ex-The Jackson Whites)

(IMG:https://f4.bcbits.com/img/0011712411_10.jpg)


Technical info
(IMG:http://metalarea.org/images/spectrogram/2019_Mar/9fe6f0bd7251e04a7dbeebd694780f12.png)
Input File: 03 - Here Come The Black Ship.mp3
Channels : 2
Sample Rate : 44100
Precision : 16-bit
Duration : 00:06:26.51 = 17044915 samples = 28988 CDDA sectors
File Size : 15.5M
Bit Rate : 320k
Sample Encoding: MPEG audio (layer I, II or III)
Comments :
Title=Here Come The Black Ship
Artist=Asthma Castle
Album=Mount Crushmore
Tracknumber=3
Year=2019
Genre=Stoner Metal



Register


Go to the top of the page
  Insert nick Quick quote
+Quote Post

Reply to this topicStart new topic
2 User(s) are reading this topic (2 Guests and 0 Anonymous Users)
0 Members:

 



- Lo-Fi Version Support form
Copyrights and abuse reports form
Time is now: 25th March 2019 - 07:06:13