Welcome Guest ( Log In | Register )

> Ahínco - El Cadáver De Nuestro Sueño (2018), Death/Thrash Metal
post Mar 15 2019, 16:45:49
Post #1

Правь статус, ####!111
**************
Group: Металариец
Posts: 17,055
Releases: 11579
From: Г.Харьков
On Forums: 7 years 2 weeks
Thanks: 193389 time(s)
Unknown


(IMG:https://metalarea.org/images/audiocovers/2019_Mar/acov_tid319095_thumb.jpg)

*Artist: Ahínco
*Album: El Cadáver De Nuestro Sueño
*Year: 2018
*Genre: Death/Thrash Metal
*Country: Argentina (IMG:https://metalarea.org/forum/style_images/flags/Argentina.png)
*Format: mp3@CBR320kbps
*Size: 135MB

Tracklist:
1. El cadáver de nuestro sueño 06:22
2. El menor de dos males 03:56
3. Cima 04:31
4. Luz agonizante 05:53
5. No habrá consuelo en la eternidad 05:23
6. Camino profano 07:47
7. La revelación de samsa 06:09
8. Bóveda de piel 06:35
9. Inenarrable 12:11
******************************
Total playing time: 58:47




Extended info
Lucho Alippi Bass, Vocals (2011-present)
See also: Sierpes
Turro Drums (2013-present)
See also: Luxgnosis
Reznik Guitars (rhythm) (2015-present)
See also: ex-Atormentador


Technical info
(IMG:https://metalarea.org/images/spectrogram/2019_Mar/2f5cdfb8e2c3c1308992fd4c36b06457.png)
Input File: 04 - Luz Agonizante.mp3
Channels : 2
Sample Rate : 44100
Precision : 16-bit
Duration : 00:05:53.95 = 15609283 samples = 26546.4 CDDA sectors
File Size : 14.3M
Bit Rate : 322k
Sample Encoding: MPEG audio (layer I, II or III)
Comments :
Title=Luz Agonizante
Artist=Ahínco
Album=El cadáver de nuestro Sueño
Tracknumber=4
Year=2018



Register


Go to the top of the page
  Insert nick Quick quote
+Quote Post
 
Start new topic
Replies (1 - 1)
post Mar 15 2019, 18:12:20
Post #2

Правь статус, ####!111
**************
Group: Металариец
Posts: 17,055
Releases: 11579
From: Г.Харьков
On Forums: 7 years 2 weeks
Thanks: 193389 time(s)
Unknown


Cloud Mail 320
Register


Thanks:
Go to the top of the page
  Insert nick Quick quote
+Quote Post

Reply to this topicStart new topic
1 User(s) are reading this topic (1 Guests and 0 Anonymous Users)
0 Members:

 



- Lo-Fi Version Support form
Copyrights and abuse reports form
Time is now: 26th May 2019 - 11:02:05