Welcome Guest ( Log In | Register )

> Guttural Penis - Sex Penis (For Rape) [ep] (2019), Porno Goregrind
post Mar 15 2019, 16:54:31
Post #1

Serial Uploader
Group Icon
Group: V.I.P
Posts: 35,215
Releases: 33430
From: Lithuania
On Forums: 10 years 11 months
Thanks: 383306 time(s)
Lithuania


(IMG:https://metalarea.org/images/audiocovers/2019_Mar/acov_tid319096_thumb.jpg)

*Artist: Guttural Penis
*Album: Sex Penis (For Rape) [ep]
*Year: 2019
*Genre: Porno Goregrind
*Country: United States (IMG:https://metalarea.org/forum/style_images/flags/United%20States.png)
*Format: mp3@CBR320kbps
*Size: 21MB

Tracklist:
01. Necrosexaholicdeathfuckpenissexskeletonsatan 02:48
02. Festering Necroejaculate 00:49
03. Sex Penis (For Rape) 05:39
******************************
Total playing time: 9:16



Technical info
(IMG:https://metalarea.org/images/spectrogram/2019_Mar/c3cf176e687ba96ec33d4bc18d894bb0.png)
Input File: 02. Festering Necroejaculate.mp3
Channels : 2
Sample Rate : 44100
Precision : 16-bit
Duration : 00:00:49.92 = 2201560 samples = 3744.15 CDDA sectors
File Size : 2.13M
Bit Rate : 342k
Sample Encoding: MPEG audio (layer I, II or III)
Comments :
Title=Festering Necroejaculate
Artist=Guttural Penis
Album=Sex Penis (For Rape)
Tracknumber=2
Year=2019



Register


Thanks:
Go to the top of the page
  Insert nick Quick quote
+Quote Post
 
Start new topic
Replies (1 - 2)
post Mar 15 2019, 18:00:44
Post #2

Don't be negative.
**************
Group: Металариец
Posts: 2,825
Releases: 747
From: Earthmother
On Forums: 8 years 8 months
Thanks: 9943 time(s)
Ukraine


За название - лайк (IMG:style_emoticons/default/15.gif)
Go to the top of the page
  Insert nick Quick quote
+Quote Post
post Mar 15 2019, 18:16:46
Post #3

Правь статус, ####!111
**************
Group: Металариец
Posts: 3,581
Releases: 0
From: Одесса
On Forums: 11 years 2 months
Thanks: 1682 time(s)
Unknown


flushed
Go to the top of the page
  Insert nick Quick quote
+Quote Post

Reply to this topicStart new topic
1 User(s) are reading this topic (1 Guests and 0 Anonymous Users)
0 Members:

 



- Lo-Fi Version Support form
Copyrights and abuse reports form
Time is now: 26th May 2019 - 10:17:25