Welcome Guest ( Log In | Register )

> Releases Upload / Добавление релизов

Добавить релиз тут / Click here to add release
Рекомендованные обменники / Recommended file shares

> Woe - A Violent Dread [ep] (2019), Black Metal
post Mar 15 2019, 17:53:56
Post #1

Литр
*
Group: Подсевший
Posts: 96
Releases: 53
On Forums: 6 years 6 months
Thanks: 1290 time(s)
Unknown


(IMG:http://metalarea.org/images/audiocovers/2019_Mar/acov_tid319097_thumb.jpg)

*Artist: Woe
*Album: A Violent Dread [ep]
*Year: 2019
*Genre: Black Metal
*Country: United States (IMG:http://metalarea.org/forum/style_images/flags/United%20States.png)
*Format: mp3@CBR320kbps
*Size: 43MB

Tracklist:
1. A Violent Dread 09:15
2. The Knell and The World (Dawn cover) 09:01
******************************
Total playing time: 18:16



Technical info
(IMG:http://metalarea.org/images/spectrogram/2019_Mar/649f7aa4f901554cbfe865f553636b3f.png)
Input File: 1 - A Violent Dread.mp3
Channels : 2
Sample Rate : 44100
Precision : 16-bit
Duration : 00:09:15.42 = 24494022 samples = 41656.5 CDDA sectors
File Size : 22.4M
Bit Rate : 323k
Sample Encoding: MPEG audio (layer I, II or III)
Comments :
Title=A Violent Dread
Artist=Woe
Album=A Violent Dread
Tracknumber=1
Year=2019
Genre=Metal
Discnumber=1



Register


Go to the top of the page
  Insert nick Quick quote
+Quote Post
 
Start new topic
Replies (1 - 1)
post Mar 17 2019, 06:52:59
Post #2

Crush! Kill! Destroy!
**************
Group: Металариец
Posts: 4,875
Releases: 15
From: Kaliningrad
On Forums: 11 years 4 months
Thanks: 4470 time(s)
Russian Federation


Судя по первому, точнее своему, треку - есть еще ягоды в ягодицах! Коврик сделали зря - ибо становится понятно, что круче отцов не прыгнуть ну никак.
Go to the top of the page
  Insert nick Quick quote
+Quote Post

Reply to this topicStart new topic
1 User(s) are reading this topic (1 Guests and 0 Anonymous Users)
0 Members:

 



- Lo-Fi Version Support form
Copyrights and abuse reports form
Time is now: 25th March 2019 - 07:19:54