Welcome Guest ( Log In | Register )

 
Reply to this topicStart new topic
> Falce - Falce (2018), Thrash/Death Metal
post Mar 15 2019, 18:52:31
Post #1

Правь статус, ####!111
**************
Group: Металариец
Posts: 17,053
Releases: 11579
From: Г.Харьков
On Forums: 7 years 2 weeks
Thanks: 193378 time(s)
Unknown


(IMG:https://metalarea.org/images/audiocovers/2019_Mar/acov_tid319098_thumb.jpg)

*Artist: Falce
*Album: Falce
*Year: 2018
*Genre: Thrash/Death Metal
*Country: Italy (IMG:https://metalarea.org/forum/style_images/flags/Italy.png)
*Format: mp3@CBR320kbps
*Size: 84MB

Tracklist:
1. Ancient Evil Reborn 03:34
2. Z.A.M.A. 03:16
3. Warszawa 04:38
4. Vandal 03:52
5. The Minister 03:19
6. The Bastard 04:11
7. The Assassin 04:41
8. Hell 02:25
9. Error №6 04:08
10. Area 51 03:03
******************************
Total playing time: 37:07





Extended info
Au Drums
Under Guitars, Bass
See also: Tundra, Under, Varnas, Whiskey & Funeral, ex-Ebola
Agonia Guitars, Vocals, Bass
See also: Agonia Black Vomit, Nailed God, Zedher's Coffin, ex-Zedher


Technical info
(IMG:https://metalarea.org/images/spectrogram/2019_Mar/73fe30ccce113bab7ef6396832326fe5.png)
Input File: 03 - Warszawa.mp3
Channels : 2
Sample Rate : 44100
Precision : 16-bit
Duration : 00:04:38.29 = 12272721 samples = 20872 CDDA sectors
File Size : 11.1M
Bit Rate : 320k
Sample Encoding: MPEG audio (layer I, II or III)
Comments :
Title=Warszawa
Artist=Falce
Album=Falce
Tracknumber=3
Year=2018
Genre=Thrash Metal



Register


Go to the top of the page
  Insert nick Quick quote
+Quote Post

Reply to this topicStart new topic
1 User(s) are reading this topic (1 Guests and 0 Anonymous Users)
0 Members:

 



- Lo-Fi Version Support form
Copyrights and abuse reports form
Time is now: 26th May 2019 - 10:27:00