Welcome Guest ( Log In | Register )

> Releases Upload / Добавление релизов

Добавить релиз тут / Click here to add release
Рекомендованные обменники / Recommended file shares

> Stygma IV - The Court Of Eternity (1998), Progressive/Power Metal (D6)
post Mar 15 2019, 19:49:27
Post #1

21st Century Schizoid Man
**************
Group: Металариец
Posts: 5,692
Releases: 68
From: Moscow
On Forums: 10 years 10 months
Thanks: 4381 time(s)
Russian Federation


(IMG:http://metalarea.org/images/audiocovers/2019_Mar/acov_tid319099_thumb.jpg)

*Artist: Stygma IV
*Album: The Court Of Eternity
*Year: 1998
*Genre: Progressive/Power Metal
*Country: Austria (IMG:http://metalarea.org/forum/style_images/flags/Austria.png)
*Format: mp3@CBR320kbps
*Size: 137MB

Tracklist:
01. The Crusade of Lies 04:34
02. Nature's Revenge 04:43
03. Fever Dream 06:27
04. Room Eleven 03:53
05. Don't Close Your Eyes 04:40
06. The Court of Eternity 06:33
07. Mirror Man 07:24
08. Dark Desire 05:37
09. The Final Hour 07:18
10. Fool III (Only Blood Makes Me Sane) 08:48
******************************
Total playing time: 59:57

(IMG:http://metalarea.org/images/youtube.png)

Extended info
Line-up
Ritchie Krenmaier - Vocals
Günter Maier - Guitars, Keyboard Programming
Ali Hilzensauer - Bass
Herb Greisberger - Drums


Technical info
(IMG:http://metalarea.org/images/spectrogram/2019_Mar/f1f3f0751ac80394722854dc38158b89.png)
Input File: 04. Room Eleven.mp3
Channels : 2
Sample Rate : 44100
Precision : 16-bit
Duration : 00:03:50.28 = 10155172 samples = 17270.7 CDDA sectors
File Size : 9.21M
Bit Rate : 320k
Sample Encoding: MPEG audio (layer I, II or III)
Comments :
Title=Room Eleven
Artist=Stygma IV
Album=The Court of Eternity
Tracknumber=04
Year=1998
Genre=Heavy Metal



Register


Go to the top of the page
  Insert nick Quick quote
+Quote Post
 
Start new topic
Replies (1 - 1)
post Mar 16 2019, 03:08:04
Post #2

Пять Литров
*****
Group: Металариец
Posts: 454
Releases: 0
From: Argentina
On Forums: 3 years 10 months
Thanks: 206 time(s)
Unknown


Register


Thanks:
(1) gwar,
Go to the top of the page
  Insert nick Quick quote
+Quote Post

Reply to this topicStart new topic
1 User(s) are reading this topic (1 Guests and 0 Anonymous Users)
0 Members:

 



- Lo-Fi Version Support form
Copyrights and abuse reports form
Time is now: 25th March 2019 - 06:19:48